Вход на сайт

Введите ваш логин:
Введите ваш пароль:
Напомнить пароль

Лучшие торренты тут у нас

Акула / Sangeo / Shark // Сезон 1, Эпизоды с 1 по 20 (из 20) (2013) [HDTVRip, любительская (одноголосая)]







Акула / Sangeo / Shark

Сезон 1, Эпизоды с 1 по 20 (из 20)

Год выпуска: 2013
Страна: Южная Корея
Производство студии: KBS2
Жанр: драма, романтика

Режиссёр: Пак Чхан Хон
В ролях:
Ким Нам Гиль – Хан И Су / Йошимура Джуничиро,
Сон Е Чжин - Чо Хэ У,
Ха Сок-Чжин - О Чжун Ён,
Ли Хани – Чан Ён Хи,
Пак Вон Сан - Бён Бан Чжин,
Ли Чжон Гил - Чо Сан Дык,
Ли Си Он - Ким Дон Су,
Нам Бо Ра - Хан И Хён,
Ли Су Хек и др.

Перевод: ФСГ "Bears"
Озвучка: Одноголосая (закадровая) Екатерина Юрьева. Релиз от группы GREEN TEA
Хардсаб: нет
Софтсаб: нет

Описание:
Она - сильная и независимая наследница шикарной гостиницы, отказавшись играть свою роль "послушной дочери", она решает стать прокурором и готова посвятить работе всю себя..
Он потерял отца и в этом замешана семья его любимой.
Оказавшись на грани смерти, он решает изменить свою личность, чтобы сблизиться и отомстить врагам. В итоге герой оказывается перед дилеммой - месть или любовь?

Качество: HDTV
Продолжительность: 1 эпизод ~ 01:02:00

Формат: AVI
Видео кодек: H264
Аудио кодек: MPEG Layer 3
Свойства видео: 800x450 (16:9), 29.970 fps,H264 ~1 696 kbps avg, 0.139 bit/pixel
Свойства аудио: 48 kHz, MPEG Layer 3, 2 ch, ~192.00 kbps avg

"отчет MediaInfo" ▼TextGeneral

Format : AVI
Format/Info : Audio Video Interleave
File size : 770 MiB
Duration : 1h 3mn
Overall bit rate : 1 696 Kbps
Writing application : VirtualDubMod 1.5.10.2 (build 2540/release)
Writing library : VirtualDubMod build 2540/release

Video
ID : 0
Format : AVC
Format/Info : Advanced Video Codec
Format profile : [email protected]
Format settings, CABAC : Yes
Format settings, ReFrames : 4 frames
Codec ID : H264
Duration : 1h 3mn
Bit rate : 1 500 Kbps
Width : 800 pixels
Height : 450 pixels
Display aspect ratio : 16:9
Frame rate : 29.970 fps
Color space : YUV
Chroma subsampling : 4:2:0
Bit depth : 8 bits
Scan type : Progressive
Bits/(Pixel*Frame) : 0.139
Stream size : 677 MiB (88%)
Writing library : x264 core 116 r2057kMod 0ba8a9c

Audio
ID : 1
Format : MPEG Audio
Format version : Version 1
Format profile : Layer 3
Mode : Joint stereo
Codec ID : 55
Codec ID/Hint : MP3
Duration : 1h 3mn
Bit rate mode : Constant
Bit rate : 192 Kbps
Channel(s) : 2 channels
Sampling rate : 48.0 KHz
Compression mode : Lossy
Stream size : 87.1 MiB (11%)
Alignment : Aligned on interleaves
Interleave, duration : 33 ms (1.00 video frame)
Interleave, preload duration : 504 ms







Акула / Sangeo / Shark // Сезон 1, Эпизоды с 1 по 20 (из 20) (2013) [HDTVRip, любительская (одноголосая)]
Информация
Посетители, находящиеся в группе Гости, не могут оставлять комментарии к данной публикации.