Вход на сайт

Введите ваш логин:
Введите ваш пароль:
Напомнить пароль

Лучшие торренты тут у нас

[NG] Гитлеровские лагеря смерти / Hitlers G.I. Death Camp (документальный, исторический, расследование, 2011) [HDTVRip 720p, Профессиональный (одноголосый, закадровый) +Оригинал]







Гитлеровские лагеря смерти / Hitlers G.I. Death Camp

Страна: США
Производство: National Geographic Channel
Год выпуска: 2011
Жанр: документальный, исторический, расследование
Режиссёр: Стивен Хоггард
Ведущие: отсутствует
Участники: историки, очевидцы, эксперты

Перевод: Профессиональный (одноголосый, закадровый) [Радик Мухаметзянов] +Оригинал

Описание"Когда все закончилось я попаду в рай,потому что в аду я уже побывал." Американские солдаты отправлены на работы в один из самых засекреченных концлагерей - Берга. В Берге они умирали бок о бок с европейскими евреями, и стали свидетелями окончательного решения еврейского вопроса. 60 лет их история оставалась никому не известной.


Тех. данные
Качество: HDTVRip 720p
Продолжительность: 00:44:58 часа

Формат: MKV
Видео кодек: AVC
Аудио кодек: AC-3
Свойства Видео: 1280x720 (16:9), 25 fps, AVC, ~2972 kbps avg, 0.129 bit/pixel
Свойства Аудио: 48 kHz, AC3, 2 ch, ~192.00 kbps avgРусский
Свойства Аудио: 48 kHz, AC3, 2 ch, ~192.00 kbps avgАнглийский

MediaInfo ▼Общее
Уникальный идентификатор : 244380971713238382960254306975246289032 (0xB7DA1029082CA799A7B6BDF53B358888)
Полное имя : D:РаспоковкаГитлеровские лагеря смерти.2011.mkv
Формат : Matroska
Версия формата : Version 2
Размер файла : 1,08 Гбайт
Продолжительность : 44 м.
Общий поток : 3424 Кбит/сек
Дата кодирования : UTC 2012-03-22 07:52:20
Программа кодирования : mkvmerge v4.5.0 (Speed of Light) сборка от Feb 1 2011 02:10:32
Библиотека кодирования : libebml v1.2.0 + libmatroska v1.1.0

Видео
Идентификатор : 1
Формат : AVC
Формат/Информация : Advanced Video Codec
Профиль формата : [email protected]
Параметр CABAC формата : Да
Параметр ReFrames формата : 5 кадров
Идентификатор кодека : V_MPEG4/ISO/AVC
Продолжительность : 44 м.
Битрейт : 2972 Кбит/сек
Ширина : 1280 пикселей
Высота : 720 пикселей
Соотношение сторон : 16:9
Частота кадров : 25,000 кадров/сек
Цветовое пространство : YUV
Субдискретизация насыщенности : 4:2:0
Битовая глубина : 8 бит
Тип развёртки : Прогрессивная
Бит/(Пиксели*Кадры) : 0.129
Размер потока : 956 Мбайт (87%)
Библиотека кодирования : x264 core 120 r2164 da19765
Настройки программы : cabac=1 / ref=5 / deblock=1:-1:-1 / analyse=0x3:0x113 / me=umh / subme=8 / psy=1 / psy_rd=1.00:0.15 / mixed_ref=1 / me_range=16 / chroma_me=1 / trellis=1 / 8x8dct=1 / cqm=0 / deadzone=21,11 / fast_pskip=1 / chroma_qp_offset=-3 / threads=9 / sliced_threads=0 / nr=0 / decimate=1 / interlaced=0 / bluray_compat=0 / constrained_intra=0 / bframes=3 / b_pyramid=2 / b_adapt=2 / b_bias=0 / direct=3 / weightb=1 / open_gop=0 / weightp=2 / keyint=250 / keyint_min=25 / scenecut=40 / intra_refresh=0 / rc_lookahead=50 / rc=crf / mbtree=1 / crf=20.0 / qcomp=0.60 / qpmin=0 / qpmax=69 / qpstep=4 / ip_ratio=1.40 / aq=1:1.00
Язык : English
Default : Да
Forced : Нет

Аудио #1
Идентификатор : 2
Формат : AC-3
Формат/Информация : Audio Coding 3
Расширение режима : CM (complete main)
Идентификатор кодека : A_AC3
Продолжительность : 44 м.
Вид битрейта : Постоянный
Битрейт : 192 Кбит/сек
Каналы : 2 канала
Расположение каналов : Front: L R
Частота : 48,0 КГц
Битовая глубина : 16 бит
Метод сжатия : С потерями
Размер потока : 61,8 Мбайт (6%)
Заголовок : Radik Muhametzianov
Язык : Russian
Default : Да
Forced : Нет

Аудио #2
Идентификатор : 3
Формат : AC-3
Формат/Информация : Audio Coding 3
Расширение режима : CM (complete main)
Идентификатор кодека : A_AC3
Продолжительность : 44 м.
Вид битрейта : Постоянный
Битрейт : 192 Кбит/сек
Каналы : 2 канала
Расположение каналов : Front: L R
Частота : 48,0 КГц
Битовая глубина : 16 бит
Метод сжатия : С потерями
Размер потока : 61,8 Мбайт (6%)
Заголовок : Original
Язык : English
Default : Нет
Forced : Нет



|Cтол заказов| Наши раздачи| Наб




[NG] Гитлеровские лагеря смерти / Hitlers G.I. Death Camp (документальный, исторический, расследование, 2011) [HDTVRip 720p, Профессиональный (одноголосый, закадровый) +Оригинал]
Информация
Посетители, находящиеся в группе Гости, не могут оставлять комментарии к данной публикации.