Вход на сайт

Введите ваш логин:
Введите ваш пароль:
Напомнить пароль

Лучшие торренты тут у нас

Вооруженные силы. Боевые машины: Шерман атакует / Battle Stations: Sherman Assault (документальный, 2001) [DVDRip-AVC, Профессиональный (одноголосый, закадровый)]







Вооруженные силы. Боевые машины: Шерман атакует / Battle Stations: Sherman Assault


Страна: Великобритания
Производство: For Tne History Channel
Год выпуска: 2001
Жанр: документальный
Режиссёр: Тэйлор Даунинг
Ведущие: отсутствует
Участники: John Semmes (Tank Commander), Martin Goldstein (Tank Driver), Terry Boyne (Tank Driver), Bob Nurse (Tank Gunner), Хроники военных лет...

Перевод: Профессиональный (одноголосый, закадровый)

Описание
История танка "Шерман" начинается в 1939 году. Именно тогда американские военные, озадаченные масштабами танковых баталий Старого Света, осознали, что в американской армии количество этих полезных машин едва превышает три сотни. Таким образом, танк "Шерман" М-4 появился на свет вследствие возникшей у союзников во время Второй Мировой войны срочной необходимости производить танки, способные соперничать с мощными бронетанковыми войсками немецкой армии. Массовое производство позволило делать больше "Шерманов", чем всех типов немецких танков, вместе взятых.

При помощи архивных съемок и реконструкций в цвете уникальный фильм из цикла "Вооруженные силы" рассказывает историю танка "Шерман", возглавившего прорыв к победе над немецкой армией в Нормандии. И тем самым открывшего дорогу к наступлению на саму Германию.


Тех.Данные
Качество: DVDRip-AVC
Продолжительность: 00:44:37 часа

Формат: Matroska-MKV-
Видео кодек: AVC [email protected]
Аудио кодек: Audio Coding 3
Свойства видео: 768x576 (4:3), 25 fps, AVC [email protected] ~1800 kbps avg, 0.21 bit/pixel
Свойства аудио: 48 kHz, AC3 Dolby Digital, 2/0 (L,R) ch, ~192 kbps

Информация MediaInfo ▼TextОбщее
Уникальный идентификатор : 240020673992289497918768252247134300694 (0xB4924CE2845C95DEA6CEDB98A68DEA16)
Полное имя : E:DownloadsВооруженные силы. Боевые машины. Шерман атакует.2001.DVDRip-AVC.mkv
Формат : Matroska
Версия формата : Version 2
Размер файла : 636 Мбайт
Продолжительность : 44 м.
Общий поток : 1994 Кбит/сек
Дата кодирования : UTC 2013-09-07 21:56:44
Программа кодирования : mkvmerge v6.1.0 (Old Devil) built on Mar 4 2013 09:10:42
Библиотека кодирования : libebml v1.3.0 + libmatroska v1.4.0

Видео
Идентификатор : 1
Формат : AVC
Формат/Информация : Advanced Video Codec
Профиль формата : [email protected]
Параметр CABAC формата : Да
Параметр ReFrames формата : 5 кадров
Идентификатор кодека : V_MPEG4/ISO/AVC
Продолжительность : 44 м.
Битрейт : 1800 Кбит/сек
Ширина : 768 пикселей
Высота : 576 пикселей
Соотношение сторон : 4:3
Частота кадров : 25,000 кадров/сек
Цветовое пространство : YUV
Субдискретизация насыщенности : 4:2:0
Битовая глубина : 8 бит
Тип развёртки : Прогрессивная
Бит/(Пиксели*Кадры) : 0.163
Размер потока : 562 Мбайт (88%)
Библиотека кодирования : x264 core 130 r2273 b3065e6
Настройки программы : cabac=1 / ref=5 / deblock=1:-2:-2 / analyse=0x3:0x111 / me=umh / subme=9 / psy=1 / psy_rd=0.00:0.10 / mixed_ref=1 / me_range=32 / chroma_me=1 / trellis=2 / 8x8dct=1 / cqm=0 / deadzone=21,11 / fast_pskip=0 / chroma_qp_offset=-1 / threads=6 / lookahead_threads=1 / sliced_threads=0 / nr=0 / decimate=1 / interlaced=0 / bluray_compat=0 / constrained_intra=0 / bframes=5 / b_pyramid=2 / b_adapt=0 / b_bias=0 / direct=1 / weightb=1 / open_gop=0 / weightp=2 / keyint=250 / keyint_min=25 / scenecut=40 / intra_refresh=0 / rc_lookahead=50 / rc=2pass / mbtree=1 / bitrate=1800 / ratetol=1.0 / qcomp=0.60 / qpmin=0 / qpmax=69 / qpstep=4 / cplxblur=20.0 / qblur=0.5 / ip_ratio=1.40 / aq=1:1.00
Default : Да
Forced : Нет

Аудио
Идентификатор : 2
Формат : AC-3
Формат/Информация : Audio Coding 3
Расширение режима : CM (complete main)
Идентификатор кодека : A_AC3
Продолжительность : 44 м.
Вид битрейта : Постоянный
Битрейт : 192 Кбит/сек
Каналы : 2 канала
Расположение каналов : Front: L R
Частота : 48,0 КГц
Битовая глубина : 16 бит
Метод сжатия : С потерями
Размер потока : 61,3 Мбайт (10%)
Default : Да
Forced : Нет









Вооруженные силы. Боевые машины: Шерман атакует / Battle Stations: Sherman Assault (документальный, 2001) [DVDRip-AVC, Профессиональный (одноголосый, закадровый)]
Информация
Посетители, находящиеся в группе Гости, не могут оставлять комментарии к данной публикации.