Вход на сайт

Введите ваш логин:
Введите ваш пароль:
Напомнить пароль

Лучшие торренты тут у нас

Альбатрос / Albatross (Найал МакКормик, Драма, 2011) [DVDRip, Профессиональный (двухголосый закадровый)]







Альбатрос / Albatross
«Beautiful. smart. talented. trouble.»



Год выпуска: 2011
Страна: Великобритания
Производство: CinemaNX
Жанр: Драма

Режиссер: Найал МакКормик
В ролях: Джессика Браун-Финдли, Гарри Тредэвэй, Джозеф Алтин, Фелисити Джонс, Джулия Ормонд, Джастин Эдвардс, Себастьян Кох, Дэвид Кан, Шила Монахэн, Кэти Оверд

Перевод: Профессиональный (двухголосый закадровый)- студия Elrom
Субтитры: Отсутствуют

Описание: История об Эмилии, привлекательной, сексуальной и весьма умной девушке. Она устраивается на работу в семейный отель, где быстро сходится с дочерью хозяев, своей ровесницей, семнадцатилетней Бет. Попутно героиня заводит интрижку с ее отцом, писателем Джонатаном. Этот роман будет иметь для всех героев фильма разрушительные последствия…








Премьера (мир): 19 июня 2011, ...

МедиаИнфо ▼Text

D:Aljbatros.2011.P.DVDRip.avi
General
Complete name : D:Aljbatros.2011.P.DVDRip.avi
Format : AVI
Format/Info : Audio Video Interleave
File size : 1.37 GiB
Duration : 1h 30mn
Overall bit rate : 2 181 Kbps
Writing application : VirtualDubMod 1.5.10.2 (build 2540/release)
Writing library : VirtualDubMod build 2540/release
Video #0
ID : 0
Format : MPEG-4 Visual
Format profile : Advanced [email protected]
Format settings, BVOP : Yes
Format settings, QPel : No
Format settings, GMC : No warppoints
Format settings, Matrix : Default (MPEG)
Codec ID : XVID
Codec ID/Hint : XviD
Duration : 1h 30mn
Bit rate : 2 044 Kbps
Width : 720 pixels
Height : 304 pixels
Display aspect ratio : 2.35:1
Frame rate : 23.976 fps
Color space : YUV
Chroma subsampling : 4:2:0
Bit depth : 8 bits
Scan type : Progressive
Compression mode : Lossy
Bits/(Pixel*Frame) : 0.389
Stream size : 1.29 GiB (94%)
Writing library : XviD 1.2.1 (UTC 2008-12-04)
Audio #1
ID : 1
Format : MPEG Audio
Format version : Version 1
Format profile : Layer 3
Mode : Joint stereo
Mode extension : MS Stereo
Codec ID : 55
Codec ID/Hint : MP3
Duration : 1h 30mn
Bit rate mode : Constant
Bit rate : 128 Kbps
Channel(s) : 2 channels
Sampling rate : 48.0 KHz
Compression mode : Lossy
Stream size : 82.4 MiB (6%)
Alignment : Aligned on interleaves
Interleave, duration : 42 ms (1.00 video frame)
Interleave, preload duration : 504 ms
Writing library : LAME3.90.3



Качество: DVDRip
Продолжительность: 01:30:03

Формат: AVI
Видео кодек: XviD
Аудио кодек: MP3
Видео: 720x304 (2.37:1), 23.976 fps, XviD build 50 ~2043 kbps avg, 0.39 bit/pixel
Аудио: 48 kHz, MPEG Layer 3, 2 ch, ~128.00 kbps avg










Альбатрос / Albatross (Найал МакКормик, Драма, 2011) [DVDRip, Профессиональный (двухголосый закадровый)]
Информация
Посетители, находящиеся в группе Гости, не могут оставлять комментарии к данной публикации.