Вход на сайт

Введите ваш логин:
Введите ваш пароль:
Напомнить пароль

Лучшие торренты тут у нас

Храбрые Перцем / Your Highness (Дэвид Гордон Грин, фэнтези, 2011) [BDRip, Дублированный [лицензия]]







• Храбрые Перцем / Your Highness •
«Приключение для тех, кому жмут гульфики»
♥ Год выпуска: 2011
♥ Страна: США
♥ Производство: Universal Pictures
♥ Жанр: Фэнтези, комедия, приключения

♥ Режиссёр: Дэвид Гордон Грин
♥ В ролях: Дэнни МакБрайд, Джеймс Франко, Расмус Хардайкер, Натали Портман, Тоби Джонс, Джастин Теру, Зои Дешанель, Чарльз Дэнс, Дамиан Льюис, Саймон Фарнэби.

♥ Перевод: Дублированный [лицензия]
♥ Субтитры: Отсутствуют

♥ Описание:
Ленивый принц Тадеуш свыкся развлекаться и бегать за служанками, пока его старший брат Фабио подсоблял отцу вести дела королевства. Но после того, как лютый колдун украл нареченную Фабио, Беладонну, Тадеушу довелось примкнуть к отряду, который обязан вызволить принцессу. Впереди — странствование через неистовые земли, встречи с чудовищами и девицей - воительницей Изабеллой, у которой свои счеты с колдуном.



♥ Качество: BDRip (Blu-Ray 1080p)
♥ Продолжительность: 01:42:27

♥ Формат: AVI
♥ Видео кодек: XviD
♥ Аудио кодек: MP3
♥ Видео: 720x304 (2.35:1), 23.976 fps, XviD build 50 ~880 kbps avg, 0.168 bit/pixel
♥ Аудио: 48 kHz, MPEG Layer 3, 2/0 (L,R) ch, ~128.00 kbps
MediaInfo: ▼TextОбщее
Полное имя : Hrabrye.pertsem.2011.D.BDRip.745MB.avi
Формат : AVI
Формат/Информация : Audio Video Interleave
Размер файла : 745 Мбайт
Продолжительность : 1 ч. 42 м.
Общий поток : 1017 Кбит/сек
Программа кодирования : VirtualDubMod 1.5.10.3 (build 2550/release)
Библиотека кодирования : VirtualDubMod build 2550/release
Видео
Идентификатор : 0
Формат : MPEG-4 Visual
Профиль формата : Advanced Simple@L5
Параметр BVOP формата : 1
Параметр QPel формата : Нет
Параметр GMC формата : Без точки перехода
Параметр матрицы формата : Выборочная
Идентификатор кодека : XVID
Идентификатор кодека/Подсказка : XviD
Продолжительность : 1 ч. 42 м.
Битрейт : 880 Кбит/сек
Ширина : 720 пикс.
Высота : 304 пикс.
Соотношение сторон : 2,35:1
Частота кадров : 23,976 кадр/сек
Цветовое пространство : YUV
Подвыборка цветности : 4:2:0
Битовая глубина : 8 бит
Тип развёртки : Прогрессивная
Метод сжатия : С потерями
Бит/(Пиксели*Кадры) : 0.168
Размер потока : 645 Мбайт (86%)
Библиотека кодирования : XviD 1.2.1 (UTC 2008-12-04)
Аудио
Идентификатор : 1
Формат : MPEG Audio
Версия формата : Version 1
Профиль формата : Layer 3
Режим : Joint stereo
Идентификатор кодека : 55
Идентификатор кодека/Подсказка : MP3
Продолжительность : 1 ч. 42 м.
Вид битрейта : Постоянный
Битрейт : 128 Кбит/сек
Каналы : 2 канала
Частота : 48,0 КГц
Метод сжатия : С потерями
Размер потока : 93,8 Мбайт (13%)
Выравнивание : Соединение по промежуткам
Продолжительность промежутка : 42 мс. (1,00 видеокадр)
Время предзагрузки промежутка : 504 ms
♥ Дата премьеры (мир): 8 апреля 2011
♥ Дата премьеры (РФ): 12 мая 2011, «UPI»

Релиз Группы "Virtus"

Стол заказов / Вступление в РГ / Благодарности, критика и другое







Храбрые Перцем / Your Highness (Дэвид Гордон Грин, фэнтези, 2011) [BDRip, Дублированный [лицензия]]
Информация
Посетители, находящиеся в группе Гости, не могут оставлять комментарии к данной публикации.