Вход на сайт

Введите ваш логин:
Введите ваш пароль:
Напомнить пароль

Лучшие торренты тут у нас

Тихая дуэль / Shizukanaru ketto (Акира Куросава, драма, 1949) [DVDRip, Профессиональный (многоголосый, закадровый)+оригинал, Субтитры: Rus.]







Тихая дуэль / Shizukanaru ketto

Год выпуска: 1949
Страна: Япония
Производство: Daiei Motion Picture Co. Ltd., Daiei Studios, Film Art Association
Жанр: драма

Режиссёр: Акира Куросава
В ролях: Тосиро Мифунэ, Такаси Симура, Мики Санжо, Кендзиро Уэмура, Тиэко Накакита, Норико Сэнгоку, Jyonosuke Miyazaki, Исаму Ямагути, Шигеру Матсумото, Хироко Матида

Перевод: Профессиональный (многоголосый, закадровый)+оригинал
Субтитры: Русские (отдельно)

Описание:
Фильм о военном враче, заразившемся сифилисом во время операции. Теперь он не может жениться на девушке, которую любит, и вынужден расстаться с ней.


Дополнительно:
MediaInfo ▼Text
Общее
Полное имя :M:ФильмыРАЗДАЧАТихая дуэльDuelTihaja.duel.(DVDRip,XviD,Rus,Jpa).avi
Формат :AVI
Размер :1.45 GiB
Продолжительность :01:34:35.920
Общий поток :2 202 Kbps

Видео
Идентификатор :0
Формат :MPEG-4 Visual
Профиль формата :Advanced [email protected]
Параметр BVOP формата :1
Параметр Qpel формата :No
Параметр GMC формата :0
Параметр Matrix формата :Custom
Идентификатор кодека :XVID
Продолжительность :1h 34mn 35s 920ms
Битрейт :1 804 Kbps
Ширина :640 pixels
Высота :464 pixels
Соотношение сторон :1.379
Частота кадров :23.976 fps
Глубина цвета :8 bits
Подвыборка цветности :4:2:0
Цветовое пространство :YUV
Тип развертки :Progressive
Бит/(Пиксели*Кадры) :0.253
Размер потока :1.19 GiB (82%)
Библиотека кодирования :XviD0050

Аудио #1
Идентификатор :1
Формат :AC-3
Формат/Информация :Audio Coding 3
Идентификатор кодека :2000
Продолжительность :01:34:35.904
Вид битрейта :Constant
Битрейт :192 Kbps
Канал(ы) :2 channels
Расположение каналов :Front: L R
Частота :48.0 KHz
Битовая глубина :16 bits
Метод сжатия :Lossy
Размер потока :130 MiB (9%)
Язык : / /

Аудио #2
Идентификатор &n




Тихая дуэль / Shizukanaru ketto (Акира Куросава, драма, 1949) [DVDRip, Профессиональный (многоголосый, закадровый)+оригинал, Субтитры: Rus.]
Информация
Посетители, находящиеся в группе Гости, не могут оставлять комментарии к данной публикации.