Вход на сайт

Введите ваш логин:
Введите ваш пароль:
Напомнить пароль

Лучшие торренты тут у нас

Орел или Решка / Pari e dispari (Серджио Корбуччи, комедия, криминал, 1978) [DVDRip, Профессиональный (многоголосый, закадровый)]







Орел или Решка / Pari e dispari

Год выпуска: 1978
Страна: Италия
Производство: Columbia Pictures Corporation, Derby Cinematografica
Жанр: комедия, криминал

Режиссёр: Серджио Корбуччи
В ролях: Теренс Хилл, Бад Спенсер, Лучано Катеначчи, Мариса Лаурито, Ким МакКэй, Сол Борджезе, Джерри Лестер, Woody Woodbury, Карло Реали, Риккардо Пиццути

Перевод: Профессиональный (многоголосый, закадровый)
Субтитры: Отсутствуют

Описание:
После того, как лейтенанта Джонни Фирпо лишает победы спортивная мафия, подстроив поломку мотора скутера, терпению командования военно-морских сил приходит конец. Джонни посылают разобраться с игорной мафией, проникшей во все спортивные мероприятия во Флориде. И неоценимую помощь в этом деле ему окажет его брат Чарли…


Дополнительно:
Рейтинг MPAA: ▼
Рейтинг PG - Рекомендуется присутствие родителей



MediaInfo ▼Text
Общее
Полное имя :D:РаздачаОрёл или РешкаOrel Ili Reshka.avi
Формат :AVI
Размер :1.44 GiB
Продолжительность :01:50:28.040
Общий поток :1 869 Kbps
Программа кодирования :Nandub v1.0rc2
Библиотека кодирования :Nandub build 1853/release

Видео
Идентификатор :0
Формат :MPEG-4 Visual
Параметр BVOP формата :No
Параметр Qpel формата :No
Параметр GMC формата :0
Параметр Matrix формата :Default (H.263)
Идентификатор кодека :DX50
Продолжительность :1h 50mn 28s 40ms
Битрейт :1 601 Kbps
Ширина :720 pixels
Высота :400 pixels
Соотношение сторон :1.800
Частота кадров :25.000 fps
Глубина цвета :8 bits
Подвыборка цветности :4:2:0
Цветовое пространство :YUV
Тип развертки :Progressive
Бит/(Пиксели*Кадры) :0.222
Размер потока :1.23 GiB (86%)
Библиотека кодирования :DivX503b1031

Аудио #1
Идентификатор :1
Формат :MPEG Audio
Идентификатор кодека :55
Продолжительность :01:50:28.023
Вид битрейта :Constant
Битрейт :256 Kbps
Канал(ы) :2 channels
Частота :44.1 KHz
Метод сжатия :Lossy
Размер потока :202 MiB (14%)




Тех. данные:
Качество:DVDRip
Продолжительность:&nb




Орел или Решка / Pari e dispari (Серджио Корбуччи, комедия, криминал, 1978) [DVDRip, Профессиональный (многоголосый, закадровый)]
Информация
Посетители, находящиеся в группе Гости, не могут оставлять комментарии к данной публикации.