Вход на сайт

Введите ваш логин:
Введите ваш пароль:
Напомнить пароль

Лучшие торренты тут у нас

Думай, как мужчина / Think Like a Man (Тим Стори, Мелодрама, комедия, 2012) [ВDRip 1080p, Профессиональный (многоголосый, закадровый) + Оригинал]







Думай, как мужчина | Think Like a Man

«Let the mind games begin.»

Год выпуска: 2012
Страна: США
Производство: Screen Gems, Rainforest Films
Жанр: Мелодрама, комедия

Режиссёр: Тим Стори
В ролях:
Ариэль Кеббел, Джерри Феррара, Тараджи П. Хенсон, Миган Гуд, Гэбриэл Юнион, Моррис Честнат, Кевин Харт, Майкл Или, Крис Браун, Реджина Холл

Перевод: Профессиональный (многоголосый, закадровый)+ Оригинал
Субтитры:Отсутствуют

Описание:
Четверо героев страдают от проблем во взаимоотношениях со спутницами жизни, которые вовсю черпают советы из книги Стива Харви «Поступай как женщина, думай как мужчина». Узнав об этом, парни решают отомстить слабому полу тем, что попытаются опровергнуть данные в тексте рекомендации, ведя себя в точности наоборот.





Качество: BDRip (1080p)
Продолжительность: 02:02:03

Формат:MKV
Видео кодек: AVC/H.264
Аудио кодек: AC-3, DTS
Видео: 1920x800 (2.40:1), 23.976 fps, AVC ~8 741 Kbps, 0.237 bit/pixel
Аудио : AC-3, 48.0 KHz, 6 ch, 448 Kbps, CBR (Russian)- Многоголосый
Аудио#2: DTS, 48.0 KHz, 6 ch, 1 510 Kbps, CBR (English)

"MediaInfo" ▼Формат : Matroska
Версия формата : Version 2
Размер файла : 9,12 Гбайт
Продолжительность : 2 ч. 2 м.
Общий поток : 10,7 Мбит/сек
Дата кодирования : UTC 2012-08-14 07:01:53
Программа кодирования : mkvmerge v5.7.0 (The Whirlwind) built on Jul 8 2012 20:08:51
Библиотека кодирования : libebml v1.2.3 + libmatroska v1.3.0

Видео
Идентификатор : 1
Формат : AVC
Формат/Информация : Advanced Video Codec
Профиль формата : [email protected]
Параметр CABAC формата : Да
Параметр ReFrames формата : 5 кадров
Идентификатор кодека : V_MPEG4/ISO/AVC
Продолжительность : 2 ч. 2 м.
Битрейт : 8741 Кбит/сек
Ширина : 1920 пикселей
Высота : 800 пикселей
Соотношение сторон : 2,40:1
Частота кадров : 23,976 кадра/сек
Цветовое пространство : YUV
Субдискретизация насыщенности : 4:2:0
Битовая глубина : 8 бит
Тип развёртки : Прогрессивная
Бит/(Пиксели*Кадры) : 0.237
Размер потока : 7,27 Гбайт (80%)
Библиотека кодирования : x264 core 125 r2208 d9d2288
Настройки программы : cabac=1 / ref=5 / deblock=1:0:0 / analyse=0x3:0x133 / me=umh / subme=7 / psy=1 / psy_rd=1.00:0.00 / mixed_ref=1 / me_range=16 / chroma_me=1 / trellis=1 / 8x8dct=1 / cqm=0 / deadzone=21,11 / fast_pskip=0 / chroma_qp_offset=-2 / threads=12 / lookahead_threads=2 / sliced_threads=0 / nr=0 / decimate=1 / interlaced=0 / bluray_compat=0 / constrained_intra=0 / bframes=3 / b_pyramid=2 / b_adapt=1 / b_bias=0 / direct=1 / weightb=1 / open_gop=0 / weightp=2 / keyint=250 / keyint_min=23 / scenecut=40 / intra_refresh=0 / rc_lookahead=40 / rc=2pass / mbtree=1 / bitrate=8741 / ratetol=1.0 / qcomp=0.60 / qpmin=0 / qpmax=69 / qpstep=4 / cplxblur=20.0 / qblur=0.5 / ip_ratio=1.40 / aq=1:1.00
Язык : English
Default : Да
Forced : Нет

Аудио #1
Идентификатор : 2
Формат : AC-3
Формат/Информация : Audio Coding 3
Расширение режима : CM (complete main)
Идентификатор кодека : A_AC3
Продолжительность : 2 ч. 2 м.
Вид битрейта : Постоянный
Битрейт : 448 Кбит/сек
Каналы : 6 каналов
Расположение каналов : Front: L C R, Side: L R, LFE
Частота : 48,0 КГц
Битовая глубина : 16 бит
Метод сжатия : С потерями
Размер потока : 391 Мбайт (4%)
Язык : Russian
Default : Да
Forced : Нет

Аудио #2
Идентификатор : 3
Формат : DTS
Формат/Информация : Digital Theater Systems
Идентификатор кодека : A_DTS
Продолжительность : 2 ч. 2 м.
Вид битрейта : Постоянный
Битрейт : 1510 Кбит/сек
Каналы : 6 каналов
Расположение каналов : Front: L C R, Side: L R, LFE
Частота : 48,0 КГц
Битовая глубина : 24 бит
Метод сжатия : С потерями
Размер потока : 1,29 Гбайт (14%)
Язык : English
Default : Нет
Forced : Нет

Меню
00:00:00.000 : en:00:00:00.000
00:05:21.613 : en:00:05:21.613
00:13:19.799 : en:00:13:19.799
00:18:23.060 : en:00:18:23.060
00:23:20.065 : en:00:23:20.065
00:29:05.953 : en:00:29:




Думай, как мужчина / Think Like a Man (Тим Стори, Мелодрама, комедия, 2012) [ВDRip 1080p, Профессиональный (многоголосый, закадровый) + Оригинал]
Информация
Посетители, находящиеся в группе Гости, не могут оставлять комментарии к данной публикации.