Вход на сайт

Введите ваш логин:
Введите ваш пароль:
Напомнить пароль

Лучшие торренты тут у нас

Легенда о МорДу / The Legend of MorDu (Брайан Ларсен, Короткометражный, сказка, фантастика,2012) [BDRip, Профессиональный (полное дублирование)]







Легенда о МорДу / The Legend of MorDu

Год выпуска: 2012
Страна: США
Производство: Walt Disney / Pixar Animation Studios
Жанр: Короткометражный, сказка, фантастика
Режиссёр: Брайан Ларсен
В ролях: Джули Уолтерс, Стив Пурселл, Каллум О’Нилл и другие.
Перевод: Профессиональный (полное дублирование)
Субтитры: Отсутствуют


Описание ▼ Легенда о королевстве МорДу рассказанная ведьмой из мультфильма Храбрая сердцем.

Рейтинг:
Рейтинг на IMDB: отсутствует
Рейтинг на КиноПоиск: отсутствует


Качество: BDRip
Продолжительность: 00:06:52 час.

Формат: AVI
Видео кодек: XviD
Аудио кодек: AC3
Видео: 720x304 (2.35:1), 23.976 fps, XviD build 50 ~1272 kbps avg, 0.242 bit/pixel
Аудио: . 48 kHz, AC3 Dolby Digital, 3/2 (L,C,R,l,r) + LFE ch, ~448 kbps

MediaInfo ▼
Text
Общее
Полное имя : F:Legenda.o.MorDu.2012.XviD.BDRip.avi
Формат : AVI
Формат/Информация : Audio Video Interleave
Размер файла : 84,9 Мбайт
Продолжительность : 6 м. 51 с.
Общий поток : 1730 Кбит/сек
Программа кодирования : VirtualDubModRus 1.5.10.2 (build 2540/release)
Библиотека кодирования : VirtualDubMod build 2540/release

Видео
Идентификатор : 0
Формат : MPEG-4 Visual
Профиль формата : Advanced [email protected]
Параметр BVOP формата : 2
Параметр QPel формата : Нет
Параметр GMC формата : Без точки перехода
Параметр матрицы формата : Default (MPEG)
Идентификатор кодека : XVID
Идентификатор кодека/Подсказка : XviD
Продолжительность : 6 м. 51 с.
Битрейт : 1272 Кбит/сек
Ширина : 720 пикселей
Высота : 304 пикселя
Соотношение сторон : 2,35:1
Частота кадров : 23,976 кадра/сек
Цветовое пространство : YUV
Субдискретизация насыщенности : 4:2:0
Битовая глубина : 8 бит
Тип развёртки : Прогрессивная
Метод сжатия : С потерями
Бит/(Пиксели*Кадры) : 0.242
Размер потока : 62,5 Мбайт (74%)
Библиотека кодирования : XviD 1.2.1 (UTC 2008-12-04)

Аудио
Идентификатор : 1
Формат : AC-3
Формат/Информация : Audio Coding 3
Расширение режима : CM (complete main)
Параметр Endianness формата : Big
Идентификатор кодека : 2000
Продолжительность : 6 м. 51 с.
Вид битрейта : Постоянный
Битрейт : 448 Кбит/сек
Каналы : 6 каналов
Расположение каналов : Front: L C R, Side: L R, LFE
Частота : 48,0 КГц
Битовая глубина : 16 бит
Метод сжатия : С потерями
Размер потока : 22,0 Мбайт (26%)
Выравнивание : Разделение по промежуткам
Продолжительность промежутка : 42 мс. (1,00 видеокадр)
Время предзагрузки промежутка : 500 мс.








Легенда о МорДу / The Legend of MorDu (Брайан Ларсен, Короткометражный, сказка, фантастика,2012) [BDRip, Профессиональный (полное дублирование)]
Информация
Посетители, находящиеся в группе Гости, не могут оставлять комментарии к данной публикации.