Вход на сайт

Введите ваш логин:
Введите ваш пароль:
Напомнить пароль

Лучшие торренты тут у нас

(Дискография, 2006-2011) Светлана Копылова (Православная песня) [FLAC (image+.cue), lossless]











Светлана Копылова - Коллекция альбомов (9 CD)
Исполнитель: Светлана Копылова
Страна: Россия
Тип альбомв: Студийные
Год выпуска: 2006 - 2011
Жанр: Православная песня
Формат: FLAC (image+.сue)
Битрейт: lossless
Продолжительность: 06:45:17

Коллекция альбомов (9 CD):
2006 - Дар Богу. Песни-притчи (FLAC|image+.cue) ▼

Продолжительность: 37:53

Tреклист:
|02:19|.:01:. Цирюльник
|02:41|.:02:. Следы на песке
|02:26|.:03:. Хитрец
|02:41|.:04:. Калека
|03:26|.:05:. Близнецы
|03:44|.:06:. Окно
|02:38|.:07:. Дар Богу
|02:45|.:08:. Послушник и монах
|03:45|.:09:. Робинзон
|04:19|.:10:. Подруги
|04:27|.:11:. Два ангела
|02:35|.:12:. ГвоздиЛог EAC ▼Text
Exact Audio Copy V0.99 prebeta 5 from 4. May 2009
Отчёт EAC об извлечении, выполненном 25. октября 2011, 20:30
Светлана Копылова / Дар Богу. Песни-притчи
Дисковод: Optiarc DVD+-RW AD-7585H Adapter: 1 ID: 0
Режим чтения : Достоверность
Использование точного потока : Да
Отключение кэша аудио : Да
Использование указателей C2 : Нет
Коррекция смещения при чтении : 6
Способность читать области Lead-in и Lead-out : Нет
Заполнение пропущенных сэмплов тишиной : Да
Удаление блоков с тишиной в начале и конце : Нет
При вычислениях CRC использовались нулевые сэмплы : Да
Интерфейс : Установленный внешний ASPI-интерфейс
Выходной формат : Пользовательский кодировщик
Выбранный битрейт : 768 kBit/s
Качество : Высокий
Добавление ID3-тэга : Нет
Утилита сжатия : C:Program FilesExact Audio CopyFLACFLAC.EXE
Дополнительные параметры : -6 -V -T "ARTIST=%a" -T "TITLE=%t" -T "ALBUM=%g" -T "DATE=%y" -T "TRACKNUMBER=%n" -T "GENRE=%m" -T "COMMENT=%e" %s -o %d
TOC извлечённого CD
Трек | Старт | Длительность | Начальный сектор | Конечный сектор
---------------------------------------------------------------------
1 | 0:00.00 | 2:19.37 | 0 | 10461
2 | 2:19.37 | 2:41.49 | 10462 | 22585
3 | 5:01.11 | 2:26.35 | 22586 | 33570
4 | 7:27.46 | 2:41.49 | 33571 | 45694
5 | 10:09.20 | 3:26.73 | 45695 | 61217
6 | 13:36.18 | 3:44.63 | 61218 | 78080
7 | 17:21.06 | 2:38.10 | 78081 | 89940
8 | 19:59.16 | 2:45.74 | 89941 | 102389
9 | 22:45.15 | 3:45.41 | 102390 | 119305





(Дискография, 2006-2011) Светлана Копылова (Православная песня) [FLAC (image+.cue), lossless]
Информация
Посетители, находящиеся в группе Гости, не могут оставлять комментарии к данной публикации.