Вход на сайт

Введите ваш логин:
Введите ваш пароль:
Напомнить пароль

Лучшие торренты тут у нас

(1994) Joy / Grand Collection (EuroDisco) [FLAC (image+.cue) lossless]







Исполнитель: Joy
Альбом: Grand Collection
Тип альбома: Студийный (LP)
Год выпуска: 1994
Жанр: EuroDisco
Формат: FLAC(image+.cue)
Битрейт: lossless
Продолжительность: 01:02:38

Треклист:
[04:19] 01. Hello
[03:49] 02. Cheek To Cheek
[04:15] 03. Fire In The Night
[04:12] 04. Valerie
[04:34] 05. Night Of The Night
[03:05] 06. Lost In Hong Kong
[04:38] 07. Darling
[03:29] 08. Kisses Are The Doctors Orders
[03:35] 09. Chinese Girls
[03:50] 10. Gimme Gimme All Of You
[04:01] 11. Magic Eyes
[03:47] 12. Black Is Black
[03:41] 13. Touch Me My Dear
[03:55] 14. Im In Love
[03:34] 15. Japanese Girls
[03:47] 16. Touch By Touch

Отчет EAC:
▼Exact Audio Copy V0.99 prebeta 4 from 23. January 2008

Отчёт EAC об извлечении, выполненном 20. октября 2009, 15:14

Joy / Grand Collection

Дисковод: TEACDV-W520GM Adapter: 4ID: 2

Режим чтения : Достоверность
Использование точного потока : Да
Отключение кэша аудио: Да
Использование указателей C2: Нет

Коррекция смещения при чтении : 6
Способность читать области Lead-in и Lead-out : Нет
Заполнение пропущенных сэмплов тишиной: Да
Удаление блоков с тишиной в начале и конце: Нет
При вычислениях CRC использовались нулевые сэмплы : Да
Интерфейс : Установленный внешний ASPI-интерфейс

Выходной формат : Внутренние WAV-операции
Формат сэмплов: 44.100 Гц; 16 бит; стерео


TOC извлечённого CD

Трек | Старт| Длительность | Начальный сектор | Конечный сектор
---------------------------------------------------------------------
1|0:00.00 |4:19.12 | 0|19436
2|4:19.12 |3:49.68 | 19437|36679
3|8:09.05 |4:15.70 | 36680|55874
4| 12:25.00 |4:12.12 | 55875|74786
5| 16:37.12 |4:34.15 | 74787|95351
6| 21:11.27 |3:05.00 | 95352| 109226
&nbs




(1994) Joy / Grand Collection (EuroDisco) [FLAC (image+.cue) lossless]
Информация
Посетители, находящиеся в группе Гости, не могут оставлять комментарии к данной публикации.