Вход на сайт

Введите ваш логин:
Введите ваш пароль:
Напомнить пароль

Лучшие торренты тут у нас

(2010) Clean Tears / Innerve (Techno, Vocaloid) [FLAC (tracks+.cue), lossless]







Исполнитель: Clean Tears
Страна: Япония
Альбом: Innerve
Тип альбома: Студийный
Год выпуска: 2010
Жанр: Techno, Vocaloid
Страна (Издатель, Каталожный номер): Япония (S.C.X. Records, CT12-OR09)
Аудиокодек: FLAC (*.flac)
Тип рипа: tracks+.cue
Битрейт: lossless
Log-файлы: Присутствуют.
Наличие сканов в содержимом раздачи: Да. (JPG, 300DPI, 3,52MB)
Продолжительность: 01:00:57


YouTube | Official page


Треклист:
01. Desert Wolf (06:57)
02. Techno Distance (Innerve Remix) (07:26)
03. Chemical Inversion (06:23)
04. Daylight (06:57)
05. Healing Your Mind (06:58)
06. Requiem (06:51)
07. Lapislazuli (06:17)
08. Make me to smile (06:06)
09. Requiem (Instrumental) (06:59)

Лог создания рипа (EAC log) ▼TextExact Audio Copy V1.0 beta 3 from 29. August 2011

EAC extraction logfile from 4. April 2012, 15:29

Clean Tears / Innerve

Used drive : TSSTcorpDVD+-RW TS-L632H Adapter: 0 ID: 0

Read mode : Secure
Utilize accurate stream : Yes
Defeat audio cache : Yes
Make use of C2 pointers : No

Read offset correction : 6
Overread into Lead-In and Lead-Out : No
Fill up missing offset samples with silence : Yes
Delete leading and trailing silent blocks : No
Null samples used in CRC calculations : Yes
Used interface : Native Win32 interface for Win NT & 2000
Gap handling : Appended to previous track

Used output format : User Defined Encoder
Selected bitrate : 768 kBit/s
Quality : High
Add ID3 tag : No
Command line compressor : C:Program Files (x86)Exact Audio CopyFLACFLAC.EXE
Additional command line options : -6 -V -T "ARTIST=%artist%" -T "TITLE=%title%" -T "ALBUM=%albumtitle%" -T "DATE=%year%" -T "TRACKNUMBER=%tracknr%" -T "GENRE=%genre%" -T "COMMENT=%comment%" -T "BAND=%albuminterpret%" -T "ALBUMARTIST=%albuminterpret%" -T "COMPOSER=%composer%" %haslyrics%--tag-from-file=LYRICS="%lyricsfile%"%haslyrics% -T "DISCNUMBER=%cdnumber%" -T "TOTALDISCS=%totalcds%" -T "TOTALTRACKS=%numtracks%" %hascover%--picture="%coverfile%"%hascover% %source% -o %dest%

TOC of the extracted CD

Track | Start | Length | Start sector | End sector
---------------------------------------------------------
1 | 0:00.00 | 6:57.04 | 0 | 31278
2 | 6:57.04 | 7:26.48 | 31279 | 64776
3 | 14:23.52 | 6:23.63 | 64777 | 93564
4 | 20:47.40 | 6:57.04 | 93565 | 124843
5 | 27:44.44 | 6:58.41 | 124844 | 156234





(2010) Clean Tears / Innerve (Techno, Vocaloid) [FLAC (tracks+.cue), lossless]
Информация
Посетители, находящиеся в группе Гости, не могут оставлять комментарии к данной публикации.