Вход на сайт

Введите ваш логин:
Введите ваш пароль:
Напомнить пароль

Лучшие торренты тут у нас

(2012) Sally Night / Love For Sale (Vocal Jazz) [FLAC (tracks+.cue), lossless]







Исполнитель: Sally Night
Страна: Англия
Альбом: Love For Sale
Тип альбома: Студийный
Год выпуска: 2012
Жанр: Vocal Jazz
Страна (Издатель, Каталожный номер): США (Venus Rec., VHCD-1065)
Аудиокодек: FLAC (*.flac)
Тип рипа: tracks+.cue
Битрейт: lossless
Log-файл: Присутствует.
Наличие сканов в содержимом раздачи: Нет.
Продолжительность: 01:12:53


Tреклист:
01. Sally Night - My Funny Valentine (04:24)
02. Sally Night - Love For Sale (04:03)
03. Sally Night - Wisper Not (02:49)
04. Sally Night - Angel Eyes (04:51)
05. Sally Night - Its Alright With Me (03:57)
06. Sally Night - Black Coffee (06:16)
07. Sally Night - Tendery (04:10)
08. Sally Night - Just You Just Me (02:19)
09. Sally Night - Bossa Medley (06:05)
10. Sally Night - The Lady Is A Tramp (03:50)
11. Sally Night - Our Love Is Here To Stay (02:54)
12. Sally Night - Day In Day Out (04:54)
13. Sally Night - Why Dont You Meet Me Downtown (04:09)
14. Sally Night - Enbraceable You (04:24)
15. Sally Night - I Thought About You (06:07)
16. Sally Night - Honeysuckle Rose (04:15)
17. Sally Night - The Way You Look Tonight (03:17)

Лог создания рипа (EAC log) ▼TextExact Audio Copy V1.0 beta 3 from 29. August 2011

EAC extraction logfile from 20. June 2012, 18:08

Sally Night / Love For Sale

Used drive : PIONEER BD-RW BDR-207M Adapter: 0 ID: 3

Read mode : Secure
Utilize accurate stream : Yes
Defeat audio cache : Yes
Make use of C2 pointers : No

Read offset correction : 667
Overread into Lead-In and Lead-Out : No
Fill up missing offset samples with silence : Yes
Delete leading and trailing silent blocks : No
Null samples used in CRC calculations : Yes
Used interface : Native Win32 interface for Win NT & 2000
Gap handling : Appended to previous track

Used output format : User Defined Encoder
Selected bitrate : 1024 kBit/s
Quality : High
Add ID3 tag : No
Command line compressor : C:Program Files (x86)Exact Audio CopyFlacflac.exe
Additional command line options : -8 -V -T "ARTIST=%artist%" -T "TITLE=%title%" -T "ALBUM=%albumtitle%" -T "DATE=%year%" -T "TRACKNUMBER=%tracknr%" -T "GENRE=%genre%" -T "PERFORMER=%albuminterpret%" -T "COMPOSER=%composer%" %haslyrics%--tag-from-file=LYRICS="%lyricsfile%"%haslyrics% -T "ALBUMARTIST=%albumartist%" -T "DISCNUMBER=%cdnumber%" -T "TOTALDISCS=%totalcds%" -T "TOTALTRACKS=%numtracks%" -T "COMMENT=%comment%" %source% -o %dest%

TOC of the extracted CD

Track | Start | Length | Start sector | End sector
---------------------------------------------------------
1 | 0:00.00 | 4:24.51 | 0 | 19850
2 | 4:24.51 | 4:03.63 | 19851 | 38138
3 | 8:28.39 | 2:49.38 | 38139 | 50851
4 | 11:18.02 | 4:51.62 |&nb




(2012) Sally Night / Love For Sale (Vocal Jazz) [FLAC (tracks+.cue), lossless]
Информация
Посетители, находящиеся в группе Гости, не могут оставлять комментарии к данной публикации.