Вход на сайт

Введите ваш логин:
Введите ваш пароль:
Напомнить пароль

Лучшие торренты тут у нас

(1997) Jazz Cafe / Simple Pleasures (Jazz, instrumental) [FLAC (image+.сue), lossless]








Исполнитель:Jazz Cafe
Страна: USA
Альбом:Simple Pleasures
Тип альбома:Студийный
Год выпуска:1997
Жанр:Jazz, instrumental
Формат: FLAC (image+.сue)
Битрейт: lossless
Log-файл: Присутствует
Наличие сканов в содержимом раздачи: да (600dpi,PNG)
Продолжительность: 00:52:23

Tреклист:

01.Simple Pleasures | 06:46
02.At Moments Notice | 04:35
03.Cross My Heart | 05:17
04.Casting Shadows | 07:59
05.Just The Two Of Us | 06:54
06.On The Up And Up | 05:13
07.The Skys The Limit | 04:26
08.The Long Tomorrow | 05:40
09.Seen And Heard | 05:29


Лог создания рипа ▼TextExact Audio Copy V0.99 prebeta 5 from 4. May 2009

Отчёт EAC об извлечении, выполненном 8. марта 2010, 13:58

Jazz Cafe / Simple Pleasures

Дисковод: TEAC CD-W540E Adapter: 3 ID: 0

Режим чтения : Достоверность
Использование точного потока : Да
Отключение кэша аудио : Да
Использование указателей C2 : Нет

Коррекция смещения при чтении : 686
Способность читать области Lead-in и Lead-out : Нет
Заполнение пропущенных сэмплов тишиной : Да
Удаление блоков с тишиной в начале и конце : Нет
При вычислениях CRC использовались нулевые сэмплы : Да
Интерфейс : Установленный внешний ASPI-интерфейс

Выходной формат : Пользовательский кодировщик
Выбранный битрейт : 1024 kBit/s
Качество : Высокий
Добавление ID3-тэга : Нет
Утилита сжатия : C:Program FilesExact Audio CopyFLACFLAC.EXE
Дополнительные параметры : -6 -V -T "ARTIST=%a" -T "TITLE=%t" -T "ALBUM=%g" -T "DATE=%y" -T "TRACKNUMBER=%n" -T "GENRE=%m" -T "COMMENT=%e" %s -o %d


TOC извлечённого CD

Трек | Старт | Длительность | Начальный сектор | Конечный сектор
---------------------------------------------------------------------
1 | 0:00.00 | 6:46.35 | 0 | 30484
2 | 6:46.35 | 4:35.47 | 30485 | 51156
3 | 11:22.07 | 5:17.63 | 51157 | 74994
4 | 16:39.70 | 8:00.52 | 74995 | 111046
5 | 24:40.47 | 6:55.58 | 111047 | 142229
6 | 31:36.30 | 5:15.00 | 142230 | 165854
7 | 36:51.30 | 4:29.00 | 165855 | 186029
8 | 41:20.30 | 5:42.42 | 186030 | 211721 &n




(1997) Jazz Cafe  / Simple Pleasures (Jazz, instrumental) [FLAC (image+.сue), lossless]
Информация
Посетители, находящиеся в группе Гости, не могут оставлять комментарии к данной публикации.