Вход на сайт

Введите ваш логин:
Введите ваш пароль:
Напомнить пароль

Лучшие торренты тут у нас

(2010) Zaz / Zaz (Nu jazz, Chanson, Soul) [FLAC (tracks+.cue), lossless]







Исполнитель: Zaz
Альбом: Zaz
Тип альбома: Студийный
Год выпуска: 2010
Жанр: Nu jazz, Chanson, Soul, French, Female vocal
Формат: FLAC (tracks+.cue)
Битрейт: lossless
Продолжительность: 00:39:04

Tреклист:
[03:33] 01. Zaz - Les Passants
[03:39] 02. Zaz - Je Veux
[03:37] 03. Zaz - Le Long De La Route
[02:53] 04. Zaz - La Fee
[03:59] 05. Zaz - Trop Sensible
[03:41] 06. Zaz - Prends Garde A Ta Langue
[03:31] 07. Zaz - Ni Oui Ni Non
[02:56] 08. Zaz - Port Coton
[03:50] 09. Zaz - Jaime A Nouveau
[04:40] 10. Zaz - Dans Ma Rue
[02:40] 11. Zaz - Eblouie Par La Nuit


"Отчет EAC" ▼TextExact Audio Copy V0.99 prebeta 4 from 23. January 2008

EAC extraction logfile from 6. October 2010, 15:30

Zaz / Zaz

Used drive : PIONEER DVD-RW DVRTD08A Adapter: 0 ID: 0

Read mode : Secure
Utilize accurate stream : Yes
Defeat audio cache : Yes
Make use of C2 pointers : No

Read offset correction : 48
Overread into Lead-In and Lead-Out : No
Fill up missing offset samples with silence : Yes
Delete leading and trailing silent blocks : No
Null samples used in CRC calculations : Yes
Used interface : Native Win32 interface for Win NT & 2000
Gap handling : Appended to previous track

Used output format : User Defined Encoder
Selected bitrate : 1024 kBit/s
Quality : High
Add ID3 tag : No
Command line compressor : C:Program Files (x86)Exact Audio CopyFLACFLAC.EXE
Additional command line options : -8 -V -T "ARTIST=%a" -T "TITLE=%t" -T "ALBUM=%g" -T "DATE=%y" -T "TRACKNUMBER=%n" -T "TOTALTRACKS=%x" -T "GENRE=%m" -T "ALBUMARTIST=%v" -T "ALBUM ARTIST=%v" -T "COMMENT=EAC Secure Mode, Test & Copy, AccurateRip, FLAC -8" %


TOC of the extracted CD

Track | Start | Length | Start sector | End sector
---------------------------------------------------------
1 | 0:00.00 | 3:33.30 | 0 | 16004
2 | 3:33.30 | 3:39.14 | 16005 | 32443
3 | 7:12.44 | 3:37.03 | 32444 | 48721
4 | 10:49.47 | 2:53.32 | 48722 | 61728
5 | 13:43.04 | 3:59.69 | 61729 | 79722
6 | 17:42.73 | 3:41.24 | 79723 | 96321
7 | 21:24.22 | 3:31.51 | 96322 | 112197
8 | 24:55.73 | 2:56.25 | 112198 | 125422
9 | 27:52.23 | 3:50.45 | 125423 | &n




(2010) Zaz / Zaz (Nu jazz, Chanson, Soul)  [FLAC (tracks+.cue), lossless]
Информация
Посетители, находящиеся в группе Гости, не могут оставлять комментарии к данной публикации.