Вход на сайт

Введите ваш логин:
Введите ваш пароль:
Напомнить пароль

Лучшие торренты тут у нас

(2004) ELLA FITZGERALD - The Best Of Ella Fitzgerald - Summertime(Vocal Jazz / Bop) - [APE (image+.cue), lossless]







Исполнитель: Ella Fitzgerald
Альбом: The Best Of Ella Fitzgerald - Summertime
Год выпуска: 2004
Жанр: Vocal Jazz / Bop
Формат: APE+.сue
Битрейт:lossless
Тип битрейта: CBR
Продолжительность: 00:62:24

Tрэклист:
▼01. Dream a Little Dream of Me (3:07)
02. Love for Sale (5:54)
03. A Tisket, A Tasket (2:39)
04. Misty (2:54)
05. All the Things You Are (3:18)
06. Lover (3:17)
07. Bei Mir Bist Du Schoen (3:03)
08. Aint Nobody Business But My Own (3:14)
09. Stardust (4:01)
10. Im Beginning to See the Light (3:28)
11. Theres a Small Hotel (2:50)
12. How High the Moon (3:17)
13. Laura (3:44)
14. Oh, Lady be Good (3:08)
15. Basin Street Blues (3:08)
16. Smooth Sailing (3:07)
17. But Not for Me (3:15)
18. Summertime (4:57)

Log EAC
▼Exact Audio Copy V0.99 prebeta 4 from 23. January 2008
Отчёт EAC об извлечении, выполненном 4. февраля 2009, 15:54
Ella Fitzgerald / The Best Of Ella Fitzgerald - Summertime
Дисковод: _NECDVD_RW ND-3550A Adapter: 0ID: 0
Режим чтения : Достоверность
Использование точного потока : Да
Отключение кэша аудио: Да
Использование указателей C2: Нет
Коррекция смещения при чтении : 48
Способность читать области Lead-in и Lead-out : Нет
Заполнение пропущенных сэмплов тишиной: Да
Удаление блоков с тишиной в начале и конце: Нет
При вычислениях CRC использовались нулевые сэмплы : Да
Интерфейс : Установленный внешний ASPI-интерфейс
Выходной формат : Внутренние WAV-операции
Формат сэмплов: 44.100 Гц; 16 бит; стерео
TOC извлечённого CD
Трек | Старт| Длительность | Начальный сектор | Конечный сектор
---------------------------------------------------------------------
1|0:00.00 |3:07.29 | 0|14053
2|3:07.29 |5:54.22 | 14054|40625
3|9:01.51 |2:39.25 | 40626|52575
4| 11:41.01 |2:53.71 | 52576|65621
5| 14:34.72 |3:17.73 | 65622|80469
6| 17:52.70 |3:17.34 | 80470|95278
7| 21:10.29 |3:03.06 | 95279&nbs




(2004) ELLA FITZGERALD - The Best Of Ella Fitzgerald - Summertime(Vocal Jazz / Bop) -  [APE (image+.cue), lossless]
Информация
Посетители, находящиеся в группе Гости, не могут оставлять комментарии к данной публикации.