Вход на сайт

Введите ваш логин:
Введите ваш пароль:
Напомнить пароль

Лучшие торренты тут у нас

(2013) Buddy Guy / Rhythm & Blues (2CD) (Blues) [FLAC (image+.cue), Lossless]







Исполнитель: Buddy Guy
Страна: USA
Альбом: Rhythm & Blues
Тип альбома: Студийный
Год выпуска: 2013
Жанр: Blues
Страна (Издатель, Каталожный номер): Germany (RCA, Silvertone Records, 88765487152)
Аудиокодек: FLAC (*.flac)
Тип рипа: image+.cue
Битрейт: lossless
Продолжительность: 01:20:42
Наличие сканов в содержимом раздачи: Да (JPG, 600dpi, 50Mb)

Wikipedia|Official page

CD #1 - Rhythm (FLAC (image+.cue), lossless) ▼
Продолжительность: 00:40:57

Tреклист:
01. Best In Town - 4:56
02. Justifyin - 3:23
03. I Go By Feel - 4:16
04. Messin With The Kid - 2:34
05. Whats Up With That Woman - 4:03
06. One Day Away - 3:44
07. Well I Done Got Over It - 2:56
08. What You Gonna Do About Me - 4:40
09. The Devils Daughter - 5:16
10. Whiskey Ghost - 4:36
11. Rhythm Inner Groove - 0:35

Лог создания рипа (EAC log) ▼Text Exact Audio Copy V1.0 beta 3 from 29. August 2011

EAC extraction logfile from 15. August 2013, 20:41

Buddy Guy / Rhythm & Blues CD1

Used drive : ATAPI iHAS124 B Adapter: 2 ID: 0

Read mode : Secure
Utilize accurate stream : Yes
Defeat audio cache : Yes
Make use of C2 pointers : No

Read offset correction : 6
Overread into Lead-In and Lead-Out : No
Fill up missing offset samples with silence : Yes
Delete leading and trailing silent blocks : No
Null samples used in CRC calculations : Yes
Used interface : Native Win32 interface for Win NT & 2000

Used output format : User Defined Encoder
Selected bitrate : 1024 kBit/s
Quality : High
Add ID3 tag : No
Command line compressor : C:Program Files (x86)Exact Audio CopyFLACFLAC.EXE
Additional command line options : -8 -V -T "ARTIST=%artist%" -T "TITLE=%title%" -T "ALBUM=%albumtitle%" -T "DATE=%year%" -T "TRACKNUMBER=%tracknr%" -T "GENRE=%genre%" -T "PERFORMER=%albuminterpret%" -T "COMPOSER=%composer%" %haslyrics%--tag-from-file=LYRICS="%lyricsfile%"%haslyrics% -T "ALBUMARTIST=%albumartist%" -T "DISCNUMBER=%cdnumber%" -T "TOTALDISCS=%totalcds%" -T "TOTALTRACKS=%numtracks%" -T "COMMENT=%comment%" %source% -o %dest%


TOC of the extracted CD

Track | Start | Length | Start sector | End sector
---------------------------------------------------------
1 | 0:00.00 | 4:55.56 | 0 | 22180
2 | 4:55.56 | 3:23.29 | 22181 | 37434
3 | 8:19.10 | 4:15.45 | 37435 | 56604
4 | 12:34.55 | 2:33.62 | 56605 | 68141
5 | 15:08.42 | 4:02.46 | 68142 | 86337
6 | 19:11.13 | 3:44.21 | 86338 | 103158
7 | 22




(2013) Buddy Guy / Rhythm & Blues (2CD) (Blues) [FLAC (image+.cue), Lossless]
Информация
Посетители, находящиеся в группе Гости, не могут оставлять комментарии к данной публикации.