Вход на сайт

Введите ваш логин:
Введите ваш пароль:
Напомнить пароль

Лучшие торренты тут у нас

(2012) Marconi Union / Different Colours (Post Rock, Downtempo, Ambient) [FLAC (tracks+.cue), lossless]







Исполнитель:Marconi Union
Страна-производитель диска: UK
Альбом:Different Colours
Тип альбома:Студийный
Год выпуска:18 Jun 2012
Жанр: Post Rock, Downtempo, Ambient
Страна (Издатель, Каталожный номер): UK (Just Music, TAO048)
Аудиокодек: FLAC (*.flac)
Тип рипа: tracks+.cue
Битрейт: lossless
Наличие сканов в содержимом раздачи: нет
Продолжительность:00:48:18


MySpace|Official page

Tреклист:

01. First Light (Marconi Union) - (07:36)
02. Alone Together (Marconi Union) - (07:06)
03. Flying (in crimson skies) (Marconi Union) - (07:32)
04. Always Numb (Marconi Union) - (06:15)
05. Time Lapse (Marconi Union) - (07:45)
06. On Reflection (Marconi Union) - (05:38)
07. Broken Colours (Marconi Union) - (06:24)

Лог создания рипа ▼TextExact Audio Copy V1.0 beta 3 from 29. August 2011

EAC extraction logfile from 27. June 2012, 21:56

Marconi Union / Different Colours

Used drive : HL-DT-STDVDRAM GP40LB10 Adapter: 1 ID: 0

Read mode : Secure
Utilize accurate stream : Yes
Defeat audio cache : Yes
Make use of C2 pointers : No

Read offset correction : 6
Overread into Lead-In and Lead-Out : No
Fill up missing offset samples with silence : Yes
Delete leading and trailing silent blocks : No
Null samples used in CRC calculations : Yes
Used interface : Native Win32 interface for Win NT & 2000
Gap handling : Appended to previous track

Used output format : User Defined Encoder
Selected bitrate : 1024 kBit/s
Quality : High
Add ID3 tag : No
Command line compressor : C:Program Files (x86)Exact Audio CopyFLACFLAC.EXE
Additional command line options : -8 -V -T "ARTIST=%artist%" -T "TITLE=%title%" -T "ALBUM=%albumtitle%" -T "DATE=%year%" -T "TRACKNUMBER=%tracknr%" -T "GENRE=%genre%" -T "PERFORMER=%albuminterpret%" -T "COMPOSER=%composer%" %haslyrics%--tag-from-file=LYRICS="%lyricsfile%"%haslyrics% -T "ALBUMARTIST=%albumartist%" -T "DISCNUMBER=%cdnumber%" -T "TOTALDISCS=%totalcds%" -T "TOTALTRACKS=%numtracks%" -T "COMMENT=%comment%" %source% -o %dest%


TOC of the extracted CD

Track | Start | Length | Start sector | End sector
---------------------------------------------------------
1 | 0:00.00 | 7:36.74 | 0 | 34273
2 | 7:36.74 | 7:06.74 | 34274 | 66297
3 | 14:43.73 | 7:32.12 | 66298 | 100209
4 | 22:16.10 | 6:15.04 | 100210 | 128338
5 | 28:31.14 | 7:45.33 | 128339 | 163246
6 | 36:16.47 | 5:38.02 |&nb




(2012) Marconi Union / Different Colours (Post Rock, Downtempo, Ambient) [FLAC (tracks+.cue), lossless]
Информация
Посетители, находящиеся в группе Гости, не могут оставлять комментарии к данной публикации.