Вход на сайт

Введите ваш логин:
Введите ваш пароль:
Напомнить пароль

Лучшие торренты тут у нас

(2010) Schiller / Breathless (Electronic) [FLAC (image+.cue), lossless]







Исполнитель: Schiller
Страна:Германия
Альбом: Breathless
Тип альбома: Студийный
Год выпуска: 2010
Жанр: Electronic
Страна (Издатель, Каталожный номер): ( Island Records06025 2740708 1)
Аудиокодек:FLAC
Тип рипа: image+.cue
Битрейт: lossless
Продолжительность: 01:19:11



Tреклист:
01. Willkommen (01:05:73)
02. Tiefblau (04:38:42)
03. Sinrise [With Lenka] (06:14:35)
04. Try [With Nadia Ali] (04:41:29)
05. Polarstern (04:30:07)
06. Playing With Madness [With Mia Bergstroem] (04:56:42)
07. Unruhig Herz [With Anna Maria Muehe] (02:23:16)
08. Dont Go [With Kate Havnevik] (05:20:03)
09. Leidenschaft [With Jaki Liebezeit] (04:33:59)
10. Under My Skin [With Kim Sanders] (04:55:27)
11. Atemlos (03:40:24)
12. Un Solo Minuto [With Odette Di Maio] (04:07:63)
13. Let It Rise (03:53:20)
14. Sunday [With Despine Vandi] (03:57:71) New
15. La Mer (03:51:19)
16. I Will Follow You [With Hen Ree] (04:28:17)
17. Himmelblau (05:10:47)
18. Moments (01:48:59)
19. Always You [With Anggun] (04:53:35)

Log EAC ▼TextExact Audio Copy V0.99 prebeta 5 from 4. May 2009

Отчёт EAC об извлечении, выполненном 23. ноября 2010, 17:26

Schiller / Breathless

Дисковод: ASUS DRW-1814BL Adapter: 2 ID: 0

Режим чтения : Достоверность
Использование точного потока : Да
Отключение кэша аудио : Да
Использование указателей C2 : Нет

Коррекция смещения при чтении : 6
Способность читать области Lead-in и Lead-out : Нет
Заполнение пропущенных сэмплов тишиной : Да
Удаление блоков с тишиной в начале и конце : Нет
При вычислениях CRC использовались нулевые сэмплы : Да
Интерфейс : Встроенный Win32-интерфейс для Win NT/2000

Выходной формат : Пользовательский кодировщик
Выбранный битрейт : 1024 kBit/s
Качество : Высокий
Добавление ID3-тэга : Нет
Утилита сжатия : C:Program FilesExact Audio CopyFLACFLAC.EXE
Дополнительные параметры : -6 -V -T "ARTIST=%a" -T "TITLE=%t" -T "ALBUM=%g" -T "DATE=%y" -T "TRACKNUMBER=%n" -T "GENRE=%m" -T "COMMENT=%e" %s -o %d


TOC извлечённого CD

Трек | Старт | Длительность | Начальный сектор | Конечный сектор
---------------------------------------------------------------------
1 | 0:00.00 | 1:05.73 | 0 | 4947
2 | 1:05.73 | 4:38.42 | 4948 | 25839
3 | 5:44.40 | 6:14.35 | 25840 | 53924
4 | 11:59.00 | 4:41.29 | 53925 | 75028
5 | 16:40.29 | 4:30.07 | 75029 | 95285
6 | 21:10.36 | 4:56.42 |&nbs




(2010) Schiller / Breathless  (Electronic) [FLAC (image+.cue), lossless]
Информация
Посетители, находящиеся в группе Гости, не могут оставлять комментарии к данной публикации.