Вход на сайт

Введите ваш логин:
Введите ваш пароль:
Напомнить пароль

Лучшие торренты тут у нас

(2012) Strange Contact / Retro (Synthpop) [FLAC (image+.сue), lossless]








Исполнитель:Strange Contact
Страна: Germany
Альбом:Retro
Издатель (лейбл): Synthom Records (Номер по каталогу: SR16)
Тип альбома:Студийный
Год выпуска:2012
Жанр:Synthpop
Формат: FLAC (image+.сue)
Битрейт: lossless
Log-файл: Присутствует
Наличие сканов в содержимом раздачи: да (600 dpi, *.jpg)
Продолжительность: 01:09:15

Описание: Чистейший синтипоп - практически классика жанра, довольно сильная пластинка Германской группы Strange Contact


Official page

Tреклист:
01. InRetro (Strange Contact) - 01:46
02. Rhythm Of The Rain (Strange Contact) - 05:01
03. Weiße Fee (Strange Contact) - 03:51
04. Poison (Strange Contact) - 04:14
05. Für Dich (Strange Contact) - 03:47
06. Alter Freund (Strange Contact) - 03:50
07. Herz Aus Eis (Strange Contact) - 05:01
08. Once In A Night (Strange Contact) - 04:02
09. Schwarz Im Weiß (Strange Contact) - 04:59
10. Und Weider (Strange Contact) - 04:18
11. Hello! 2012 (Strange Contact) - 04:58
12. Dein Prinz (Strange Contact) - 04:55
13. Typical Words (Strange Contact) - 04:37
14. Secret Lover (Strange Contact) - 04:51
15. Six Weeks / Auf Der Flucht (Strange Contact) - 04:53
16. Nur Im Traum (Piano-Version) (Strange Contact) - 04:04


Лог создания рипа ▼TextExact Audio Copy V0.99 prebeta 5 from 4. May 2009

Отчёт EAC об извлечении, выполненном 15. мая 2012, 18:19

Strange Contact / Retro

Дисковод: _NEC DVD_RW ND-3520A Adapter: 0 ID: 1

Режим чтения : Достоверность
Использование точного потока : Да
Отключение кэша аудио : Да
Использование указателей C2 : Нет

Коррекция смещения при чтении : 48
Способность читать области Lead-in и Lead-out : Нет
Заполнение пропущенных сэмплов тишиной : Да
Удаление блоков с тишиной в начале и конце : Нет
При вычислениях CRC использовались нулевые сэмплы : Да
Интерфейс : Установленный внешний ASPI-интерфейс

Выходной формат : Пользовательский кодировщик
Выбранный битрейт : 1024 kBit/s
Качество : Высокий
Добавление ID3-тэга : Нет
Утилита сжатия : C:Program FilesExact Audio Copyflac.exe
Дополнительные параметры : -6 -V -T "ARTIST=%a" -T "TITLE=%t" -T "ALBUM=%g" -T "DATE=%y" -T "TRACKNUMBER=%n" -T "GENRE=%m" -T "COMMENT=%e" %s -o %d


TOC извлечённого CD

Трек | Старт | Длительность | Начальный сектор | Конечный сектор
---------------------------------------------------------------------
1 | 0:00.00 | 1:46.51 | 0 | 8000
2 | 1:46.51 | 5:03.44 | 8001 | 30769
3 | 6:50.20 | 3:52.52 | 30770 | 48221
4 | 10:42.72 | 4:16.47 | 48222 | 67468
5 | 14:59.44 | 3:48.50




(2012) Strange Contact / Retro (Synthpop) [FLAC (image+.сue), lossless]
Информация
Посетители, находящиеся в группе Гости, не могут оставлять комментарии к данной публикации.