Вход на сайт

Введите ваш логин:
Введите ваш пароль:
Напомнить пароль

Лучшие торренты тут у нас

(2009) Serge Devant / Wanderer (House) [FLAC (tracks+.cue), lossless]







Исполнитель: Serge Devant
Альбом: Wanderer
Год выпуска: 2009
Жанр: House
Формат: APE+.cue
Битрейт: Lossless
Тип битрейта: Flac
Продолжительность: 01:04:38

Tрэклист:
01. Sweet Harmony (5:28)
02. Take Me With You (feat. Emma Hewitt) (5:59)
03. Stuck In the 80s (3:58
04. 12 Wives In Tehran (feat. Nadia Ali) (5:57)
05. Part of Me (feat. Kyven) (6:11
06. Addicted (feat. Hadley) (5:41)
07. Shadow (feat. Second Sun) (4:14)
08. No Good (feat. Jaren) (5:23)
09. Midnight Train (feat. Hadley) (4:06)
10. Surround U (feat. Kyven) (4:23)
11. Wanderer (feat. Hadley) (4:50)
12. People (feat. Kyle Ewalt) (4:20
13. Peace (feat. Hadley) (4:08)
Audiochecker
▼AUDIOCHECKER v2.0 beta (build 457) - by Dester - [email protected]
~~~~~~~~~~~~~~~~~~~~~~~~~~~~~~~~~~
-=== DO NOT EDIT THIS FILE! ===-
Path: ...Serge_Devant_-_Wanderer-(ULT2074)-CD-2009-LOSSLESS-GSTAR
01 -=- 01-serge_devant_-_sweet_harmony-gstar.flac -=- CDDA (100%)
02 -=- 02-serge_devant_-_take_me_with_you_(feat_emma_hewitt)-gstar.flac -=- CDDA (100%)
03 -=- 03-serge_devant_-_stuck_in_the_80s-gstar.flac -=- CDDA (100%)
04 -=- 04-serge_devant_-_12_wives_in_tehran_(feat_nadia_ali)-gstar.flac -=- CDDA (100%)
05 -=- 05-serge_devant_-_part_of_me_(feat_kyven)-gstar.flac -=- CDDA (100%)
06 -=- 06-serge_devant_-_addicted_(feat_hadley)-gstar.flac -=- MPEG (95%)
07 -=- 07-serge_devant_-_shadow_(feat_second_sun)-gstar.flac -=- MPEG (95%)
08 -=- 08-serge_devant_-_no_good_(feat_jaren)-gstar.flac -=- MPEG (95%)
09 -=- 09-serge_devant_-_midnight_train_(feat_hadley)-gstar.flac -=- MPEG (95%)
10 -=- 10-serge_devant_-_surround_u_(feat_kyven)-gstar.flac -=- CDDA (100%)
11 -=- 11-serge_devant_-_wanderer_(feat_hadley)-gstar.flac -=- CDDA (99%)
12 -=- 12-serge_devant_-_people_(feat_kyle)-gstar.flac -=- CDDA (100%)
13 -=- 13-serge_devant_-_peace_(feat_hadley)-gstar.flac -=- CDDA (99%)
Summary 70,62% CDDA
135515412
EAC
▼Exact Audio Copy V0.99 prebeta 3 from 28. July 2007
EAC extraction logfile from 14. August 2009, 22:22
Serge Devant / Wanderer
Used drive : TSSTcorpCD/DVDW TS-H552L Adapter: 1 ID: 0
Read mode : Secure
Utilize accurate stream : Yes
Defeat audio cache : Yes
Make use of C2 pointers : No
Read offset correction : 6
Overread into Lead-In and Lead-Out : No
Fill up missing offset samples with silence : Yes
Delete leading and trailing silent blocks : No
Null samples used in CRC calculations : Yes
Used interface : Native Win32 interface for Win NT & 2000
Gap handling : Appended to previous track
Used output format : User Defined Encoder
Selected bitrate : 1024 kBit/s
Quality : High
Add ID3 tag : Yes
Command line compressor : C:Program FilesExact Audio CopyFLACFLAC.EXE
Additional command line options : -V -8 -T "artist=%a" -T "title=%t" -T "album=%g" -T "date=%y" -T "tracknumber=%n" -T "genre=%m" %s
TOC of the extracted CD
Track | Start | Length | Start sector | End sector
---------------------------------------------------------
1 | 0:00.00 | 5:28.00 | 0 | 24599
2 | 5:28.00 | 5:59.00 | 24600 | 51524
3 | 11:27.00 | 3:58.00 | 51525 | 69374
4 | 15:25.00 | 5:57.37 | 69375 | 96186
5 | 21:22.37 | 6:10.68 | 96187 | 124004
6 | 27:33.30 | 5:41.00 | 124005 | 149579
7 | 33:14.30 | 4:14.37 | 149580 | 168666
8 | 37:28.67 | 5:23.00 | 168667 | 192891
9 | 42:51.67 | 4:06.00 | 192892 | 211341
10 | 46:57.67 | 4:22.40 | 211342 | 231031
11 | 51:20.32 | 4:50.37 | 231032 | 252818
12 | 56:10.69 | 4:20.00 | 252819 | 272318
13 | 60:30.69 | 4:08.00 | 272319 | 290918
Track 1
Filename E:�1-Serge_Devant-Sweet_Harmony.wav
Pre-gap length 0:00:02.00
Peak level 96.6 %
Track quality 100.0 %
Test CRC 7F599A84
Copy CRC 7F599A84
Track not present in AccurateRip database
Copy OK
Track 2
Filename E:�2-Serge_Devant-Take_Me_With_You_(feat._Emma_Hewitt).wav
Peak level 96.6 %
Track quality 100.0 %
Test CRC DD1AF7AB
Copy CRC DD1AF7AB
Track not present in AccurateRip database
Copy OK
Track 3
Filename E:�3-Serge_Devant-Stuck_In_The_80s.wa




(2009) Serge Devant / Wanderer (House) [FLAC (tracks+.cue), lossless]
Информация
Посетители, находящиеся в группе Гости, не могут оставлять комментарии к данной публикации.