Вход на сайт

Введите ваш логин:
Введите ваш пароль:
Напомнить пароль

Лучшие торренты тут у нас

(2012) VA / Ibiza House Summer 2012 (House) [FLAC (tracks+.cue), lossless]








Исполнитель:VA
Альбом:Ibiza House Summer 2012
Тип альбома:Студийный
Год выпуска:2012
Жанр:House
Аудиокодек: FLAC (*.flac)
Тип рипа: tracks+.cue
Битрейт: lossless
Общая продолжительность: 02:03:06

Disc 1 ▼
Продолжительность: 01:04:09

Tреклист:
[06:27] 01. Tiesto, Montana & Storm - Bleckentrommel (Sick Individuals Remix)
[07:41] 02. Robbie Rivera - I Love Ibiza
[06:30] 03. Remy Le Duc, The EC Twins, Zen Freeman featuring Shakeh - In Motion
[07:12] 04. Felix Leiter featuring Zita - Hold On (Original)
[05:59] 05. Fast Eddie featuring Joe Smooth & Max A Million - Rock Yo Body (Biggi Remix)
[05:35] 06. Manufactured Superstars with Trent Cantrelle featuring Molly Cottrell - Make My Body Move
[06:37] 07. Julie Thompson & Leon Bolier - Underwater (Wetdog Remix)
[05:30] 08. Dave Silcox featuring Amy Pearson - This Is Love
[05:31] 09. The Freestylers featuring Ami Carmine - Over You (Hykus & Richie G Remix)
[07:04] 10. Victoria Aitken - Weekend Lover (Sean Finn Remix)



Лог создания рипа ▼TextExact Audio Copy V1.0 beta 3 from 29. August 2011

EAC extraction logfile from 7. September 2012, 23:40

Various Artists / Ibiza House Summer 2012

Used drive : ATAPI iHAS122 C Adapter: 1 ID: 1

Read mode : Secure
Utilize accurate stream : Yes
Defeat audio cache : Yes
Make use of C2 pointers : No

Read offset correction : 6
Overread into Lead-In and Lead-Out : No
Fill up missing offset samples with silence : Yes
Delete leading and trailing silent blocks : No
Null samples used in CRC calculations : Yes
Used interface : Native Win32 interface for Win NT & 2000
Gap handling : Appended to previous track

Used output format : User Defined Encoder
Selected bitrate : 1024 kBit/s
Quality : High
Add ID3 tag : No
Command line compressor : C:Program Files (x86)Exact Audio CopyFlacflac.exe
Additional command line options : -8 -V -T "ARTIST=%artist%" -T "TITLE=%title%" -T "ALBUM=%albumtitle%" -T "DATE=%year%" -T "TRACKNUMBER=%tracknr%" -T "GENRE=%genre%" -T "PERFORMER=%albuminterpret%" -T "COMPOSER=%composer%" %haslyrics%--tag-from-file=LYRICS="%lyricsfile%"%haslyrics% -T "ALBUMARTIST=%albumartist%" -T "DISCNUMBER=%cdnumber%" -T "TOTALDISCS=%totalcds%" -T "TOTALTRACKS=%numtracks%" -T "COMMENT=%comment%" %source% -o %dest%


TOC of the extracted CD

Track | Start | Length | Start sector | End sector
---------------------------------------------------------
1 | 0:00.00 | 6:27.10 | 0 | 29034
2 | 6:27.10 | 7:41.18 | 29035 | 63627
3 | 14:08.28 | 6:30.59 | 63628 | 92936
4 | 20:3




(2012) VA / Ibiza House Summer 2012 (House) [FLAC (tracks+.cue), lossless]
Информация
Посетители, находящиеся в группе Гости, не могут оставлять комментарии к данной публикации.