Вход на сайт

Введите ваш логин:
Введите ваш пароль:
Напомнить пароль

Лучшие торренты тут у нас

(2010) ДиДюЛя / Аромат (flamenco, instrumental, folk) [APE (image + .cue), lossless]







ДиДюЛя/ Ароматы

Исполнитель: ДиДюЛя
Альбом: Ароматы
Тип альбома: LP
Год выпуска: 2010
Жанр: Instrumental
Формат: APE(image+.cue)
Битрейт: lossless
Продолжительность: 00:00:42:26

Tреклист:
01 - Один день в сентябре [4:02]
02 - Торо-ко-ко , пэк-пэк [2:59]
03 - Воздушный змей [3:37]
04 - Прогулка [3:40]
05 - Мерцает звук [2:41]
06 - После дождя [6:11]
07 - Затерянный грот [3:25]
08 - Кольца времени [4:48]
09 - На рассвете [3:50]
10 - Прощай поверхность! [3:54]
11 - Аромат [3:34]


"Отчет EAC" ▼Exact Audio Copy V0.99 prebeta 5 from 4. May 2009

Отчёт EAC об извлечении, выполненном 12. марта 2010, 19:53

ДиДюЛя / Аромат

Дисковод: HL-DT-STDVD-RAM GH22NS30 Adapter: 3ID: 0

Режим чтения : Достоверность
Использование точного потока : Да
Отключение кэша аудио: Да
Использование указателей C2: Нет

Коррекция смещения при чтении : 102
Способность читать области Lead-in и Lead-out : Нет
Заполнение пропущенных сэмплов тишиной: Да
Удаление блоков с тишиной в начале и конце: Нет
При вычислениях CRC использовались нулевые сэмплы : Да
Интерфейс : Установленный внешний ASPI-интерфейс

Выходной формат : Внутренние WAV-операции
Формат сэмплов: 44.100 Гц; 16 бит; стерео


TOC извлечённого CD

Трек | Старт| Длительность | Начальный сектор | Конечный сектор
---------------------------------------------------------------------
1|0:00.00 |4:02.47 | 0|18196
2|4:02.47 |2:59.33 | 18197|31654
3|7:02.05 |3:37.56 | 31655|47985
4| 10:39.61 |3:40.67 | 47986|64552
5| 14:20.53 |2:41.02 | 64553|76629
6| 17:01.55 |6:11.63 | 76630| 104517
7| 23:13.43 |3:25.40 |104518|&nb




(2010) ДиДюЛя / Аромат (flamenco, instrumental, folk) [APE (image + .cue), lossless]
Информация
Посетители, находящиеся в группе Гости, не могут оставлять комментарии к данной публикации.