Вход на сайт

Введите ваш логин:
Введите ваш пароль:
Напомнить пароль

Лучшие торренты тут у нас

(2010) Батыр / Осторожно, милая девушка! (Pop) [FLAC (image+ cue)]







Исполнитель: Батырхан Шукенов
Альбом: Осторожно, милая девушка!
Тип альбома: Студийный
Label: МОНОЛИТ
Номер по каталогу: МТ 000410-368-1
Год выпуска: 2010
Жанр: Pop
Формат: FLAC(image+.cue+log)
Битрейт: lossless
Продолжительность: 39:31

Треклист:

01 Над облаками (03:38)
02 Мы чужие (04:00)
03 Осторожно, милая девушка! (03:27)
04 Немного слез и моей любви (03:41)
05 Прости и прощай (03:17)
06 Просто друзья... ft. Настя Задорожная (03:33)
07 Ревнивая (04:27)
08 Твои шаги (03:02)
09 Время любви (03:29)
10 По закону Дарвина (03:16)
11 Ничего не жаль (03:39)

Сканы обложек (600 dpi, JPG) прилагаются.

Отчет EAC
▼Exact Audio Copy V0.99 prebeta 5 from 4. May 2009

Отчёт EAC об извлечении, выполненном 20. мая 2010, 2:31

Батыр / Осторожно, милая девушка!

Дисковод: PIONEER DVD-RWDVR-212 Adapter: 8ID: 0

Режим чтения : Достоверность
Использование точного потока : Да
Отключение кэша аудио: Да
Использование указателей C2: Нет

Коррекция смещения при чтении : 48
Способность читать области Lead-in и Lead-out : Нет
Заполнение пропущенных сэмплов тишиной: Да
Удаление блоков с тишиной в начале и конце: Нет
При вычислениях CRC использовались нулевые сэмплы : Да
Интерфейс : Установленный внешний ASPI-интерфейс

Выходной формат : Внутренние WAV-операции
Формат сэмплов: 44.100 Гц; 16 бит; стерео

TOC извлечённого CD

Трек | Старт| Длительность | Начальный сектор | Конечный сектор
---------------------------------------------------------------------
1|0:00.00 |3:38.56 | 0|16405
2|3:38.56 |3:59.57 | 16406|34387
3|7:38.38 |3:26.74 | 34388|49911
4| 11:05.37 |3:41.37 | 49912|66523
5| 14:46.74 |3:16.50 | 66524|81273
6| 18:03.49 |3:33.09 | 81274|97257
7| 21:36.58 |4:28.11 | 97258| 117368
 




(2010) Батыр / Осторожно, милая девушка! (Pop) [FLAC (image+ cue)]
Информация
Посетители, находящиеся в группе Гости, не могут оставлять комментарии к данной публикации.