Вход на сайт

Введите ваш логин:
Введите ваш пароль:
Напомнить пароль

Лучшие торренты тут у нас

(Дискография, 2004-2011) Petra Berger (Classical Crossover) [FLAC (image+.cue), lossless]







Дискография
Исполнитель: Petra Berger
Страна (Издатели): Netherlands (Universal Music BV; Petra Berger Produkties; Vayne Music)
Жанр:Classical Crossover
Аудиокодек:FLAC (*.flac)
Тип рипа:image+.cue
Битрейт: Lossless
Лог-файлы: присутсвуют
Продолжительность:03:22:24

О релизе:▼Автор всех рипов - italia57

Студийные:

2006 - Here And Now (Universal Music BV/0602517042964):



Продолжительность:00:50:51

Tреклист:

01. Petra Berger - In Your Eyes (04:08)
02. Petra Berger - Conta sempre su di me (03:37)
03. Petra Berger - If Came the Hour (Passacaglia) (03:47)
04. Petra Berger - We Cant Let Go (Duet With Simone Kleinsma) (03:56)
05. Petra Berger - Requiem (04:13)
06. Petra Berger - Liberta (03:15)
07. Petra Berger - Here and Now (03:55)
08. Petra Berger - You Raise Me Up (04:41)
09. Petra Berger - Domani (03:19)
10. Petra Berger - Life Goes On (Liberi da noi) (Duet With Gigi Finizio) (04:24)
11. Petra Berger - Grande amore mio (04:07)
12. Petra Berger - Lonely Without You (04:27)
13. Petra Berger - Wide Open (02:56)
Лог извлечения: ▼
Text
Exact Audio Copy V1.0 beta 3 from 29. August 2011

EAC extraction logfile from 9. October 2012, 15:01

Petra Berger / Here and Now (0602517042964)

Used drive : TSSTcorpCDDVDW TS-L633C Adapter: 2 ID: 0

Read mode : Secure
Utilize accurate stream : Yes
Defeat audio cache : Yes
Make use of C2 pointers : No

Read offset correction : 6
Overread into Lead-In and Lead-Out : No
Fill up missing offset samples with silence : Yes
Delete leading and trailing silent blocks : No
Null samples used in CRC calculations : Yes
Used interface : Native Win32 interface for Win NT & 2000

Used output format : Internal WAV Routines
Sample format : 44.100 Hz; 16 Bit; Stereo


TOC of the extracted CD

Track | Start | Length | Start sector | End sector
---------------------------------------------------------
1 | 0:00.00 | 4:08.05 | 0 | 18604
2 | 4:08.05 | 3:37.73 | 18605 | 34952
3 | 7:46.03 | 3:47.68 | 34953 | 52045
4 | 11:33.71 | 3:56.20 | 52046 | 69765
5 | 15:30.16 | 4:13.13 | 69766 | 88753
6 | 19:43.29 | 3:15.72 | 88754 | 103450
7 | 22:59.26 | 3:55.57 | 103451 | 121132
8 | 26:55.08 | 4:41.37 | 121133 | 142244
9 | 31:36.45 | 3:19.11 | 142245 | 157180
10 | 34:55.56 | 4:24.33 | 157181 | 177013
11 | 39:20.14 | 4:07.11 | 177014 | 195549
12




(Дискография, 2004-2011) Petra Berger (Classical Crossover) [FLAC (image+.cue), lossless]
Информация
Посетители, находящиеся в группе Гости, не могут оставлять комментарии к данной публикации.