Вход на сайт

Введите ваш логин:
Введите ваш пароль:
Напомнить пароль

Лучшие торренты тут у нас

(2008) ANDREA BOCELLI / Incanto (classical) [FLAC (tracks+.cue) lossless]







Исполнитель: Andrea Bocelli
Альбом: Incanto
Год выпуска: 2008
Жанр: classical
Формат: FLAC (tracks+.cue)
Битрейт: lossless
Продолжительность: 00:52:10

Tрэклист:
[04:22] 01. Un Amore Cosi Grande (ft. Veronica Berti)
[02:49] 02. O Surdato Nnammurato
[03:30] 03. Mamma
[03:02] 04. Voglio Vivere Cosi
[04:27] 05. Santa Lucia
[02:31] 06. Funiculi Funicula
[02:36] 07. Because
[04:37] 08. Vieni Sul Mari
[04:12] 09. Granada
[04:57] 10. Era de Maggio (duet with Anna Bonitatibus)
[03:14] 11. A Marechiare
[05:03] 12. ...E Vui Durmiti Ancora
[03:59] 13. Non Ti Scordar Di Me
[02:46] 14. Pulcinella

Отчет EAC:▼
Exact Audio Copy V0.99 prebeta 1 from 25. May 2007

EAC extraction logfile from 5. November 2008, 8:28

Andrea Bocelli / Incanto

Used drive: IDE-DVD DROM6216 Adapter: 4ID: 1

Read mode : Secure
Utilize accurate stream : Yes
Defeat audio cache: Yes
Make use of C2 pointers : No

Read offset correction: 738
Overread into Lead-In and Lead-Out: No
Fill up missing offset samples with silence : Yes
Delete leading and trailing silent blocks : No
Used interface: Native Win32 interface for Win NT & 2000
Gap handling: Appended to previous track

Used output format: User Defined Encoder
Selected bitrate: 128 kBit/s
Quality : High
Add ID3 tag : No
Command line compressor : C: Program FilesExact Audio CopyFLACFLAC.EXE
Additional command line options : -6 -V -T "ARTIST=%a" -T "TITLE=%t" -T "ALBUM=%g" -T "DATE=%y" -T "TRACKNUMBER=%n" -T "GENRE=%m" -T "COMMENT=%e" %s -o %d


TOC of the extracted CD

Track | Start|Length| Start sector | End sector
---------------------------------------------------------
1|0:00.00 |4:22.29 | 0|19678
2|4:22.29 |2:49.09 | 19679|32362
3|7:11.38 |3:30.03 | 32363|48115
4| 10:41.41 |3:02.12 | 48116|61777
5| 13:43.53 |4:27.50 | 61778




(2008) ANDREA BOCELLI / Incanto (classical) [FLAC (tracks+.cue) lossless]
Информация
Посетители, находящиеся в группе Гости, не могут оставлять комментарии к данной публикации.