Вход на сайт

Введите ваш логин:
Введите ваш пароль:
Напомнить пароль

Лучшие торренты тут у нас

(2012, Сборник) VA / Vintage Lounge (2 CD) (Lounge, Downtempo, Lo-Fi) [FLAC (tracks+.cue), lossless]








Сборник
Исполнитель:Various Artists
Название сборника:Vintage Lounge
Год выпуска: April 9, 2012
Жанр:Lounge, Downtempo, Lo-Fi
Страна (Издатель):France (Wagram Music, 3254642)
Аудиокодек: FLAC (*.flac)
Тип рипа: tracks+.cue
Битрейт: lossless
Продолжительность: 02:37:51


Tреклист:
Vintage Lounge DISC ONE ▼Продолжительность: 01:19:01

01. Femme Fatale (Aloe Blacc) - (03:34)
02. Devil May Care (Jamie Cullum) - (03:24)
03. Sitting On The Dock Of The Bay (Anne Ducros) - (04:31)
04. Knockin On Heavens Door (Ben Sidran) - (03:49)
05. I Walk The Line (Norah Jones & Joel Harrison) - (05:00)
06. Lets Stay Together (Trinah) - (04:15)
07. On The Road Again (Slackwax) - (03:05)
08. Sunny (Eli Goulart & Banda Do Mato) - (03:30)
09. Essa Moca Ta Diferente (Bossacucanova) - (04:23)
10. Que Reste-T-Il De Nos Amours (Salome De Bahia) - (04:44)
11. Like A Virgin (Musica Nuda) - (02:51)
12. If You Go Away ( Rigmor Gustafsson & Nils Landgren) - (04:48)
13. Here Comes The Rain (Ida Sand) - (04:01)
14. Killing Me Softly (Nils Landgren) - (03:42)
15. Billie Jean (Martini Lizards) - (04:53)
16. Georgia On My Mind (Matthieu Bore) - (03:36)
17. Help! (Tok Tok Tok) - (04:14)
18. The Look Of Love (Dominique Dalcan) - (02:40)
19. Sweet Dreams (Terez Montcalm) - (04:03)
20. Isnt She Lovely (Sylvain Luc & Bireli Lagrene) - (03:59)
Лог создания рипа ▼TextExact Audio Copy V1.0 beta 1 from 15. November 2010

EAC extraction logfile from 8. October 2012, 16:39

Various / Vintage Lounge Cd1

Used drive : PLEXTOR DVDR PX-L890SA Adapter: 5 ID: 0

Read mode : Secure
Utilize accurate stream : Yes
Defeat audio cache : Yes
Make use of C2 pointers : No

Read offset correction : 6
Overread into Lead-In and Lead-Out : No
Fill up missing offset samples with silence : Yes
Delete leading and trailing silent blocks : No
Null samples used in CRC calculations : Yes
Used interface : Native Win32 interface for Win NT & 2000
Gap handling : Appended to previous track

Used output format : User Defined Encoder
Selected bitrate : 1024 kBit/s
Quality : High
Add ID3 tag : No
Command line compressor : C:Program FilesExact Audio CopyFlacflac.exe
Additional command line options : -8 -V -T "ARTIST=%a" -T "TITLE=%t" -T "ALBUM=%g" -T "DATE=%y" -T "TRACKNUMBER=%n" -T "GENRE=%m" -T "COMMENT=ripped by Oleandris" %s


TOC of the extracted CD

Track | Start | Length | Start sector | End sector
---------------------------------------------------------
1 | 0:00.00 | 3:33.63 | 0 | 16037
2 | 3:33.63 | 3:24.14 | 16038 | 31351
3 | 6:58.02 | 4:30.49 | 31352 | 51650
4 | 11:28.51 | 3:48.62 | 51651 &




(2012, Сборник) VA / Vintage Lounge (2 CD) (Lounge, Downtempo, Lo-Fi)  [FLAC (tracks+.cue), lossless]
Информация
Посетители, находящиеся в группе Гости, не могут оставлять комментарии к данной публикации.