Вход на сайт

Введите ваш логин:
Введите ваш пароль:
Напомнить пароль

Лучшие торренты тут у нас

(2008, Сборник) VA / Relax Piano - Yesterday - Trai Tim Mua Thu - Vol.7 (New Age, Instrumental, Easy Listening) [FLAC (tracks+.cue), lossless]








Сборник
Исполнитель:Various Artists
Название сборника:Relax Piano - Yesterday - Trai Tim Mua Thu - Vol.7
Год выпуска:2008
Жанр:New Age, Instrumental, Easy Listening
Страна (Издатель, Каталожный номер): Phuong Nam Film/02879
Аудиокодек: FLAC (*.flac)
Тип рипа: tracks+.cue
Битрейт: lossless
Наличие сканов в содержимом раздачи: Есть
Продолжительность: 01:08:12



Tреклист:
01. Loi Binh (02:25)
02. Nho Mua Thu Ha Noi (07:42)
03. Trai Tim Mua Thu (06:02)
04. Dau Phai Boi Mua Thu (07:02)
05. Giọt Mua Thu (06:32)
06. Doan Khuc Thu Ha Noi (07:50)
07. Mua Thu La Bay (05:49)
08. Chi La Mua Thu Rơi (05:44)
09. Khong Con Mua Thu (06:24)
10. Mua Thu Cho Em (07:41)
11. Ngan Thu Ao Tim (04:58)

Лог создания рипа ▼Text
Exact Audio Copy V1.0 beta 3 from 29. August 2011

EAC extraction logfile from 19. February 2012, 22:32

Various Artists / Relax Piano - Yesterday - Trai Tim Mua Thu - Vol.07

Used drive : HL-DT-STDVDRAM GH22NS50 Adapter: 0 ID: 4

Read mode : Secure
Utilize accurate stream : Yes
Defeat audio cache : Yes
Make use of C2 pointers : No

Read offset correction : 667
Overread into Lead-In and Lead-Out : No
Fill up missing offset samples with silence : Yes
Delete leading and trailing silent blocks : No
Null samples used in CRC calculations : Yes
Used interface : Native Win32 interface for Win NT & 2000
Gap handling : Appended to previous track

Used output format : User Defined Encoder
Selected bitrate : 896 kBit/s
Quality : High
Add ID3 tag : No
Command line compressor : C:Program Files (x86)Exact Audio CopyFlacflac.exe
Additional command line options : -8 -V -T "ARTIST=%artist%" -T "TITLE=%title%" -T "ALBUM=%albumtitle%" -T "DATE=%year%" -T "TRACKNUMBER=%tracknr%" -T "GENRE=%genre%" -T "PERFORMER=%albuminterpret%" -T "COMPOSER=%composer%" %haslyrics%--tag-from-file=LYRICS="%lyricsfile%"%haslyrics% -T "ALBUMARTIST=%albumartist%" -T "ALBUM ARTIST=%albumartist%" -T "DISCNUMBER=%cdnumber%" -T "TOTALDISCS=%totalcds%" -T "TOTALTRACKS=%numtracks%" -T "COMMENT={HQM}-hqmusic.vn, Secure Mode, Test & Copy, AccurateRip, FLAC -8" %source% -o %dest%


TOC of the extracted CD

Track | Start | Length | Start sector | End sector
---------------------------------------------------------
1 | 0:00.00 | 2:25.44 | 0 | 10918
2 | 2:25.44 | 7:42.09 | 10919 | 45577
3 | 10:07.53 | 6:02.09 | 45578 | 72736
4 | 16:09.62 | 7:02.52 | 72737 | 104438
5 | 23:12.39 | 6:32.00 | 104439 | &nb




(2008, Сборник) VA / Relax Piano - Yesterday - Trai Tim Mua Thu - Vol.7 (New Age, Instrumental, Easy Listening) [FLAC (tracks+.cue), lossless]
Информация
Посетители, находящиеся в группе Гости, не могут оставлять комментарии к данной публикации.