Вход на сайт

Введите ваш логин:
Введите ваш пароль:
Напомнить пароль

Лучшие торренты тут у нас

(2012) Signum / Remixed (Trance) [FLAC (tracks+.cue), Lossless]








Исполнитель:Signum
Альбом:Remixed
Тип альбома:Compilation
Год выпуска:2012
Жанр:Trance
Издатель (лейбл): Open Gate Records / Armada Music B.V.
Номер по каталогу: ПРЗ CD06292
Страна-производитель диска: Россия
Аудиокодек: FLAC (*.flac)
Тип рипа: tracks+.cue
Битрейт: lossless
Продолжительность: 01:09:01




Tреклист:
01. First Strike (Juventa Club Mix) [05:59]
02. Come Around Again (Roger Shah Banging Retro Remix) feat. Anita Kelsey [07:02]
03. Harmonic (Estiva Remix) [07:04]
04. Syndicate (Abstract Vision & Elite Electronic Remix) [07:42]
05. The Timelord (Mark Sixma Remix) [07:36]
06. Second Wave (Mike Foyles Dark Wave Remix) [08:45]
07. What Ya Got 4 Me (Ron Hagen & Al-Exander Remix) [06:10]
08. Centurion (Faruk Sabancis Tripod Mix) [07:28]
09. Push Through (Suspect 44 Remix) [05:07]
10. Beyond This Earth (Jason van Wyk Remix) [06:08]

Лог создания рипа ▼TextExact Audio Copy V1.0 beta 3 from 29. August 2011

EAC extraction logfile from 2. February 2013, 23:36

Signum / Remixed

Used drive : ATAPI iHAS122 C Adapter: 1 ID: 1

Read mode : Secure
Utilize accurate stream : Yes
Defeat audio cache : Yes
Make use of C2 pointers : No

Read offset correction : 6
Overread into Lead-In and Lead-Out : No
Fill up missing offset samples with silence : Yes
Delete leading and trailing silent blocks : No
Null samples used in CRC calculations : Yes
Used interface : Native Win32 interface for Win NT & 2000
Gap handling : Appended to previous track

Used output format : User Defined Encoder
Selected bitrate : 1024 kBit/s
Quality : High
Add ID3 tag : No
Command line compressor : C:Program Files (x86)Exact Audio CopyFlacflac.exe
Additional command line options : -8 -V -T "ARTIST=%artist%" -T "TITLE=%title%" -T "ALBUM=%albumtitle%" -T "DATE=%year%" -T "TRACKNUMBER=%tracknr%" -T "GENRE=%genre%" -T "PERFORMER=%albuminterpret%" -T "COMPOSER=%composer%" %haslyrics%--tag-from-file=LYRICS="%lyricsfile%"%haslyrics% -T "ALBUMARTIST=%albumartist%" -T "DISCNUMBER=%cdnumber%" -T "TOTALDISCS=%totalcds%" -T "TOTALTRACKS=%numtracks%" -T "COMMENT=%comment%" %source% -o %dest%


TOC of the extracted CD

Track | Start | Length | Start sector | End sector
---------------------------------------------------------
1 | 0:00.00 | 5:58.49 | 0 | 26898
2 | 5:58.49 | 7:01.65 | 26899 | 58538
3 | 13:00.39 | 7:04.24 | 58539 | 90362
4 | 20:04.63 | 7:41.71 | 90363 | 125008
5 | 27:46.59 | 7:35.68 | 125009&




(2012) Signum / Remixed (Trance) [FLAC (tracks+.cue), Lossless]
Информация
Посетители, находящиеся в группе Гости, не могут оставлять комментарии к данной публикации.