Вход на сайт

Введите ваш логин:
Введите ваш пароль:
Напомнить пароль

Лучшие торренты тут у нас

(2012, Сборник) VA / Bar Lounge Deluxe: The Greatest Midnight Jazz Classics (2 CD) (Jazz, Lounge, Easy Listening) [FLAC (tracks+.cue), lossless]







Сборник
Исполнитель: Various Artists
Название сборника: Bar Lounge Deluxe: The Greatest Midnight Jazz Classics (2 CD)
Год выпуска: 2012
Жанр: Jazz, Lounge, Easy Listening
Страна (Издатель, Каталожный номер): E.E.C (ZYX Music, ZYX 82596-2)
Аудиокодек: FLAC (*.flac)
Тип рипа: tracks+.cue
Битрейт: lossless
Лог файл: присутствуют
Наличие сканов в содержимом раздачи: Есть
Продолжительность: 04:38:26

СD 1 (FLAC (tracks+.cue)) ▼
Продолжительность: 00:54:52

Tреклист:
01. Perry Como - Its Impossible (3:25)
02. Dinah Washington - What A Diffrence A Day Made (2:11)
03. The Mantovani Orchestra - Tenderly (3:22)
04. Ella Fitzgerald - In A Sentimental Mood (2:43)
05. Jackie Gleason - Laura (3:23)
06. Nat King Cole - I Love You For Sentimental Reasons (2:55)
07. Frank Chacksfield - Mona Lisa (2:45)
08. Shirley Horn - Second Time Around (3:10)
09. Hugh Lawson - As Time Goes By (2:03)
10. Ron Goodwin - Blue Star (Medic Theme) (2:38)
11. Doris Day - Secret Love (3:32)
12. Percy Faith - Moon River (3:05)
13. Frank Sinatra - Somewhere Along The Way (2:57)
14. Jackie Gleason - Thats All (2:29)
15. Peggy Lee - Heres That Rainy Day (2:44)
16. Les Baxter And His Orchestra With Danny Welton - Ruby (2:53)
17. Julie London - Cry Me A River (2:45)
18. Percy Faith - Bouquet (3:14)
19. Dolores Gray - Youre My Thrill (2:41)
Лог создания рипа ▼Text
Exact Audio Copy V1.0 beta 1 from 15. November 2010

EAC extraction logfile from 27. March 2013, 21:47

Various Artists / Bar Lounge Deluxe - CD 1

Used drive : ASUS DRW-24B3ST Adapter: 1 ID: 2

Read mode : Secure
Utilize accurate stream : Yes
Defeat audio cache : Yes
Make use of C2 pointers : No

Read offset correction : 6
Overread into Lead-In and Lead-Out : No
Fill up missing offset samples with silence : Yes
Delete leading and trailing silent blocks : No
Null samples used in CRC calculations : Yes
Used interface : Native Win32 interface for Win NT & 2000
Gap handling : Appended to previous track

Used output format : User Defined Encoder
Selected bitrate : 896 kBit/s
Quality : High
Add ID3 tag : No
Command line compressor : C:Program Files (x86)Exact Audio CopyFlacflac.exe
Additional command line options : -8 -V -T "ARTIST=%a" -T "TITLE=%t" -T "ALBUM=%g" -T "DATE=%y" -T "TRACKNUMBER=%n" -T "GENRE=%m" -T "COMMENT=ripped by Oleandris" %s


TOC of the extracted CD

Track | Start | Length | Start sector | End sector
---------------------------------------------------------
1 | 0:00.00 | 3:24.53 | 0 | 15352
2 | 3:24.53 | 2:10.63 | 15353 | 25165
3 | 5:35.41 | 3:22.11 | 25166 | 40326
4 | 8:57.52 | 2:42.60 | 40327 | &nbs




(2012, Сборник) VA / Bar Lounge Deluxe: The Greatest Midnight Jazz Classics (2 CD) (Jazz, Lounge, Easy Listening) [FLAC (tracks+.cue), lossless]
Информация
Посетители, находящиеся в группе Гости, не могут оставлять комментарии к данной публикации.