Вход на сайт

Введите ваш логин:
Введите ваш пароль:
Напомнить пароль

Лучшие торренты тут у нас

(2002, Сборник) VA / Chill Out Edition (2xCD) (Lounge, Chillout, Downtempo, Ambient) [FLAC (tracks+.cue), lossless]







Сборник
Исполнитель: Various Artists
Название сборника: Chill Out Edition (2xCD)
Год выпуска: 2002
Жанр: Lounge, Chillout, Downtempo, Ambient
Страна (Издатель, Каталожный номер): Germany (Universal_Marketing Group, 044006986029)
Аудиокодек: FLAC (*.flac)
Тип рипа: tracks+.cue
Битрейт: lossless
Лог файл: присутствуют
Наличие сканов в содержимом раздачи: Есть
Продолжительность: 02:30:20

СD/1 (FLAC (tracks+.cue)) ▼
Продолжительность: 01:14:36

Tреклист:
01. Over Soul Feat. Gramma Funk - Universal Unfolding (5:43)
02. Levitation - More Than Ever People (7:20)
03. Martin Girault - Revival (Original Radio Edit) (3:33)
04. Sofa Surfers - Sofa Rockers (4:34)
05. Resonance - Dawn till Dawn (4:07)
06. Fanfan La Tulipe - Give Them Something (4:56)
07. Movenpick - Ebbe Sand (3:53)
08. Bomb The Bass - Bug Powder Dust (Kruder & Dorfmeister Dub) (6:16)
09. Yoshinori Sunahara - Love Beat (6:37)
10. Schiller - Ruhe (Langspielfassung) (6:12)
11. Love Unlimited Orchestra - Strange Games And Things (4:08)
12. United Future Organization - His Name Is... (5:07)
13. Underwolves - So Blue Its Black (Heavy Manners Mix) (4:58)
14. Smoke City - Underwater Love (3:55)
15. Folk Og Rovere - Fruhagen (3:18)
Лог создания рипа ▼Text
Exact Audio Copy V1.0 beta 1 from 15. November 2010

EAC extraction logfile from 9. April 2013, 15:47

Various / Chill Out Edition CD1

Used drive : ASUS DRW-24B3ST Adapter: 1 ID: 2

Read mode : Secure
Utilize accurate stream : Yes
Defeat audio cache : Yes
Make use of C2 pointers : No

Read offset correction : 6
Overread into Lead-In and Lead-Out : No
Fill up missing offset samples with silence : Yes
Delete leading and trailing silent blocks : No
Null samples used in CRC calculations : Yes
Used interface : Native Win32 interface for Win NT & 2000
Gap handling : Appended to previous track

Used output format : User Defined Encoder
Selected bitrate : 896 kBit/s
Quality : High
Add ID3 tag : No
Command line compressor : C:Program Files (x86)Exact Audio CopyFlacflac.exe
Additional command line options : -8 -V -T "ARTIST=%a" -T "TITLE=%t" -T "ALBUM=%g" -T "DATE=%y" -T "TRACKNUMBER=%n" -T "GENRE=%m" -T "COMMENT=ripped by Oleandris" %s


TOC of the extracted CD

Track | Start | Length | Start sector | End sector
---------------------------------------------------------
1 | 0:00.00 | 5:42.62 | 0 | 25711
2 | 5:42.62 | 7:20.22 | 25712 | 58733
3 | 13:03.09 | 3:32.45 | 58734 | 74678
4 | 16:35.54 | 4:34.07 | 74679 | 95235
5 | 21:09.61 | 4:07.10 | 95236 | 113




(2002, Сборник) VA / Chill Out Edition (2xCD) (Lounge, Chillout, Downtempo, Ambient) [FLAC (tracks+.cue), lossless]
Информация
Посетители, находящиеся в группе Гости, не могут оставлять комментарии к данной публикации.