Вход на сайт

Введите ваш логин:
Введите ваш пароль:
Напомнить пароль

Лучшие торренты тут у нас

(2011) Disturbed / The Lost Children (Alternative Metal) [FLAC (tracks+.cue)lossless]









Альбом: The Lost Children
Тип альбома: B-sides compilation
Год выпуска: 2011
Страна: USA
Жанр: Alternative Metal
Формат: FLAC (tracks+.cue)
Битрейт: lossless
Лог-файл: Присутствует
Продолжительность: 01:00:57


01. Hell (04:15)
02. A Welcome Burden (03:31)
03. This Moment (03:05)
04. Old Friend (03:35)
05. Monster (04:04)
06. Run (03:12)
07. Leave It Alone (04:06)
08. Two Worlds (03:30)
09. God Of The Mind (03:04)
10. Sickened (03:58)
11. Mine (05:04)
12. Parasite (03:23)
13. Dehumanized (03:32)
14. 3 (04:01)
15. Midlife Crisis [Faith No More cover] (04:03)
16. Living After Midnight [Judas Priest cover] (04:25)EAC ▼TextEAC extraction logfile from 10. November 2011, 19:30

Disturbed / The Lost Children

Used drive : ATAPI DVD A DH16AASH Adapter: 0 ID: 1

Read mode : Secure
Utilize accurate stream : Yes
Defeat audio cache : Yes
Make use of C2 pointers : No

Read offset correction : 6
Overread into Lead-In and Lead-Out : No
Fill up missing offset samples with silence : Yes
Delete leading and trailing silent blocks : No
Null samples used in CRC calculations : Yes
Used interface : Native Win32 interface for Win NT & 2000
Gap handling : Appended to previous track

Used output format : User Defined Encoder
Selected bitrate : 1024 kBit/s
Quality : High
Add ID3 tag : No
Command line compressor : C:Program Files (x86)Exact Audio CopyFlacflac.exe
Additional command line options : -8 -V -T "ARTIST=%artist%" -T "TITLE=%title%" -T "ALBUM=%albumtitle%" -T "DATE=%year%" -T "TRACKNUMBER=%tracknr%" -T "GENRE=%genre%" -T "PERFORMER=%albuminterpret%" -T "COMPOSER=%composer%" %haslyrics%--tag-from-file=LYRICS="%lyricsfile%"%haslyrics% -T "ALBUMARTIST=%albumartist%" -T "DISCNUMBER=%cdnumber%" -T "TOTALDISCS=%totalcds%" -T "TOTALTRACKS=%numtracks%" -T "COMMENT=%comment%" %source% -o %dest%

TOC of the extracted CD

Track | Start | Length | Start sector | End sector
---------------------------------------------------------
1 | 0:00.00 | 4:15.34 | 0 | 19158
2 | 4:15.34 | 3:31.60 | 19159 | 35043
3 | 7:47.19 | 3:05.71 | 35044 | 48989
4 | 10:53.15 | 3:35.35 | 48990 | 65149
5 | 14:28.50 | 4:04.00 | 65150 | 83449
6 | 18:32.50 | 3:12.61 | 83450 | 97910
7 | 21:45.36 | 4:06.61 | 97911 | 116421
8 | 25:52.22 | 3:30.62 | 116422 | 132233
&n




(2011) Disturbed / The Lost Children (Alternative Metal) [FLAC (tracks+.cue)lossless]
Информация
Посетители, находящиеся в группе Гости, не могут оставлять комментарии к данной публикации.