Вход на сайт

Введите ваш логин:
Введите ваш пароль:
Напомнить пароль

Лучшие торренты тут у нас

(2012) For Today / Immortal (Metalcore, Hardcore, Christian) [FLAC (tracks+.cue), lossless]







Исполнитель:For Today
Страна: США
Альбом: Immortal
Тип альбома:Студийный
Год выпуска:2012
Жанр: Metalcore, Hardcore, Christian
Формат: FLAC (tracks+.cue)
Битрейт: lossless
Log-файл: Присутствует
Продолжительность: 00:37:27


Wikipedia | Last.fm | Myspace | Official page

Tреклист:
01. The King (01:29)
02. Fearless (03:46)
03. Stand Defiant (03:44)
04. Immortal (03:54)
05. The Call (01:37)
06. Foundation (03:47)
07. Open Eyes (04:06)
08. Under God (Ft. Tommy Green) (03:51)
09. Set Apart (Ft. Jake Luhrs) (03:36)
10. The Only Name (Ft. Sonny Sandoval) (03:50)
11. My Confession (03:41)


Отчет "EAC" ▼TextExact Audio Copy V1.0 beta 3 from 29. August 2011

EAC extraction logfile from 24. May 2012, 22:21

For Today / Immortal

Used drive : Optiarc DVD RW AD-7585H Adapter: 0 ID: 2

Read mode : Secure
Utilize accurate stream : Yes
Defeat audio cache : Yes
Make use of C2 pointers : No

Read offset correction : 6
Overread into Lead-In and Lead-Out : No
Fill up missing offset samples with silence : Yes
Delete leading and trailing silent blocks : No
Null samples used in CRC calculations : Yes
Used interface : Native Win32 interface for Win NT & 2000
Gap handling : Appended to previous track

Used output format : User Defined Encoder
Selected bitrate : 1024 kBit/s
Quality : High
Add ID3 tag : No
Command line compressor : C:Program Files (x86)FLACflac.exe
Additional command line options : -8 -V -T "ARTIST=%artist%" -T "TITLE=%title%" -T "ALBUM=%albumtitle%" -T "DATE=%year%" -T "TRACKNUMBER=%tracknr%" -T "GENRE=%genre%" -T "PERFORMER=%albuminterpret%" -T "COMPOSER=%composer%" %haslyrics%--tag-from-file=LYRICS="%lyricsfile%"%haslyrics% -T "ALBUMARTIST=%albumartist%" -T "DISCNUMBER=%cdnumber%" -T "TOTALDISCS=%totalcds%" -T "TOTALTRACKS=%numtracks%" -T "COMMENT=%comment%" %source% -o %dest%


TOC of the extracted CD

Track | Start | Length | Start sector | End sector
---------------------------------------------------------
1 | 0:00.00 | 1:29.47 | 0 | 6721
2 | 1:29.47 | 3:46.47 | 6722 | 23718
3 | 5:16.19 | 3:44.17 | 23719 | 40535
4 | 9:00.36 | 3:54.65 | 40536 | 58150
5 | 12:55.26 | 1:37.65 | 58151 | 65490
6 | 14:33.16 | 3:47.18 | 65491 | 82533
7 | 18:20.34 | 4:06.36 | 82534 |&nb




(2012) For Today / Immortal (Metalcore, Hardcore, Christian) [FLAC (tracks+.cue), lossless]
Информация
Посетители, находящиеся в группе Гости, не могут оставлять комментарии к данной публикации.