Вход на сайт

Введите ваш логин:
Введите ваш пароль:
Напомнить пароль

Лучшие торренты тут у нас

(2012) Ария / Live In Studio (Heavy Metal) [FLAC (image+.сue), lossless]








Альбом: Live In Studio
Страна: Россия
Тип альбома: Студийный
Год выпуска: 2012
Жанр: Heavy Metal
Формат: FLAC (image+.сue)
Битрейт: lossless
Продолжительность: 01:17:13


Треклист
01. Герой Асфальта (05:08)
02. Бал У Князя Тьмы (05:48)
03. Игра С Огнём (09:05)
04. Осколок Льда (05:26)
05. Колизей (06:14)
06. Кровь За Кровь (07:46)
07. Обман (05:25)
08. Штиль (06:05)
09. Палач (08:24)
10. Улица Роз (06:02)
11. Ангельская Пыль (05:51)
12. Небо Тебя Найдёт (05:54)


"Отчет "EAC" ▼TextExact Audio Copy V1.0 beta 3 from 29. August 2011

Отчёт EAC об извлечении, выполненном 1. апреля 2012, 23:17

Ария / Live In Studio

Дисковод: Optiarc DVD RW AD-7173A Adapter: 0 ID: 0

Режим чтения : Достоверность
Использование точного потока : Да
Отключение кэша аудио : Да
Использование указателей C2 : Нет

Коррекция смещения при чтении : 48
Способность читать области Lead-in и Lead-out : Нет
Заполнение пропущенных сэмплов тишиной : Да
Удаление блоков с тишиной в начале и конце : Нет
При вычислениях CRC использовались нулевые сэмплы : Да
Интерфейс : Встроенный Win32-интерфейс для Win NT/2000

Выходной формат : Пользовательский кодировщик
Выбранный битрейт : 768 kBit/s
Качество : Высокий
Добавление ID3-тега : Нет
Утилита сжатия : D:Program Files (x86)Exact Audio CopyFLACFLAC.EXE
Дополнительные параметры : -8 -V -T "ARTIST=%artist%" -T "TITLE=%title%" -T "ALBUM=%albumtitle%" -T "DATE=%year%" -T "TRACKNUMBER=%tracknr%" -T "GENRE=%genre%" -T "COMMENT=%comment%" -T "BAND=%albuminterpret%" -T "ALBUMARTIST=%albuminterpret%" -T "COMPOSER=%composer%" %haslyrics%--tag-from-file=LYRICS="%lyricsfile%"%haslyrics% -T "DISCNUMBER=%cdnumber%" -T "TOTALDISCS=%totalcds%" -T "TOTALTRACKS=%numtracks%" %hascover%--picture="%coverfile%"%hascover% %source% -o %dest%

TOC извлечённого CD

Трек | Старт | Длительность | Начальный сектор | Конечный сектор
---------------------------------------------------------------------
1 | 0:00.00 | 5:10.11 | 0 | 23260
2 | 5:10.11 | 5:50.02 | 23261 | 49512
3 | 11:00.13 | 9:07.45 | 49513 | 90582
4 | 20:07.58 | 5:28.66 | 90583 | 115248
5 | 25:36.49 | 6:16.46 | 115249 | 143494
6 | 31:53.20 | 7:48.39 | 143495 | 178633
7 | 39:41.59 | 5:27.16 | 178634 | 203174
8




(2012) Ария / Live In Studio (Heavy Metal) [FLAC (image+.сue), lossless]
Информация
Посетители, находящиеся в группе Гости, не могут оставлять комментарии к данной публикации.