Вход на сайт

Введите ваш логин:
Введите ваш пароль:
Напомнить пароль

Лучшие торренты тут у нас

(2011) Phinehas / Thegodmachine (Metalcore) [FLAC (tracks+.cue), lossless]









Альбом: Thegodmachine
Тип альбома: Студийный
Год выпуска: 2011
Страна: США
Жанр: Metalcore
Формат: FLAC (tracks+.cue)
Битрейт: lossless
Log-файл: Присутствует
Продолжительность: 00:49:40


01. Thegodmachine: The Speaking Stone (01:22)
02. Bad Blood (03:36)
03. A Pattern In Pain (05:16)
04. I Am The Lion (04:52)
05. From One End Of The Sky To The Other (04:28)
06. Legacy (00:58)
07. Crowns (04:02)
08. The Wishing Well (04:31)
09. My Horses Are Many (03:28)
10. Grace Disguised By Darkness (05:38)
11. Pendulum (02:54)
12. Thegodmachine: The Rider (06:36)
13. That I May Love You (01:52)


"Отчет "EAC" ▼TextExact Audio Copy V1.0 beta 2 from 29. April 2011
EAC extraction logfile from 17. January 2012, 7:24

Phinehas / Thegodmachine

Used drive : HL-DT-STDVDRAM GH24NS50 Adapter: 6 ID: 0

Read mode : Secure
Utilize accurate stream : Yes
Defeat audio cache : Yes
Make use of C2 pointers : No

Read offset correction : 667
Overread into Lead-In and Lead-Out : No
Fill up missing offset samples with silence : Yes
Delete leading and trailing silent blocks : No
Null samples used in CRC calculations : Yes
Used interface : Native Win32 interface for Win NT & 2000
Gap handling : Appended to previous track

Used output format : User Defined Encoder
Selected bitrate : 768 kBit/s
Quality : High
Add ID3 tag : No
Command line compressor : C:Program Files (x86)Exact Audio CopyFLACFLAC.EXE
Additional command line options : -6 -V -T "ARTIST=%artist%" -T "TITLE=%title%" -T "ALBUM=%albumtitle%" -T "DATE=%year%" -T "TRACKNUMBER=%tracknr%" -T "GENRE=%genre%" -T "COMMENT=%comment%" -T "BAND=%albuminterpret%" -T "COMPOSER=%composer%" %haslyrics%--ta

TOC of the extracted CD

Track | Start | Length | Start sector | End sector
---------------------------------------------------------
1 | 0:00.00 | 1:22.71 | 0 | 6220
2 | 1:22.71 | 3:36.37 | 6221 | 22457
3 | 4:59.33 | 5:16.63 | 22458 | 46220
4 | 10:16.21 | 4:52.71 | 46221 | 68191
5 | 15:09.17 | 4:28.22 | 68192 | 88313
6 | 19:37.39 | 0:58.36 | 88314 | 92699
7 | 20:36.00 | 4:02.68 | 92700 | 110917
8 | 24:38.68 | 4:31.24 | 110918 | 131266
9 | 29:10.17 | 3:28.64 | 131267 | 146930
10 | 32:39.06 | 5:38.39 | 14




(2011) Phinehas / Thegodmachine (Metalcore) [FLAC (tracks+.cue), lossless]
Информация
Посетители, находящиеся в группе Гости, не могут оставлять комментарии к данной публикации.