Вход на сайт

Введите ваш логин:
Введите ваш пароль:
Напомнить пароль

Лучшие торренты тут у нас

(2011) Iron Savior / The Landing (Limited Edition) (Power/Heavy Metal) [FLAC (image+.cue), lossless]









Альбом: The Landing (Limited Edition)
Тип альбома: Студийный
Год выпуска: 2011
Страна: Германия
Жанр: Power/Heavy Metal
Формат: FLAC (image+.cue)
Битрейт: lossless
Log-файл: Присутствует
Продолжительность: 00:59:03



01. Descending[01:04]
02. The Savior[04:47]
03. Starlight[04:50]
04. March of Doom[04:42]
05. Heavy Metal Never Dies[04:14]
06. Moment in Time[05:06]
07. Hall of the Heroes[05:38]
08. R. U. Ready[04:48]
09. Faster than All[05:03]
10. Before the Pain[04:34]
11. No Guts, No Glory[04:28]
12. Coming Home (bonus track)[03:57]
13. Atlantis Falling (bonus track)[04:31]


Отчет "EAC": ▼TextExact Audio Copy V1.0 beta 2 from 29. April 2011

Отчёт EAC об извлечении, выполненном 18. ноября 2011, 17:29

Iron Savior / The Landing (Limited Edition)

Дисковод: HL-DT-STDVD-RAM GSA-E60N Adapter: 2 ID: 0

Режим чтения : Достоверность
Использование точного потока : Да
Отключение кэша аудио : Да
Использование указателей C2 : Нет

Коррекция смещения при чтении : 102
Способность читать области Lead-in и Lead-out : Нет
Заполнение пропущенных сэмплов тишиной : Да
Удаление блоков с тишиной в начале и конце : Нет
При вычислениях CRC использовались нулевые сэмплы : Да
Интерфейс : Установленный внешний ASPI-интерфейс

Выходной формат : Внутренние WAV-операции
Формат сэмплов : 44.100 Гц; 16 бит; стерео

TOC извлечённого CD

Трек | Старт | Длительность | Начальный сектор | Конечный сектор
---------------------------------------------------------------------
1 | 0:00.00 | 1:04.44 | 0 | 4843
2 | 1:04.44 | 4:47.58 | 4844 | 26426
3 | 5:52.27 | 4:50.72 | 26427 | 48248
4 | 10:43.24 | 4:42.51 | 48249 | 69449
5 | 15:26.00 | 4:14.28 | 69450 | 88527
6 | 19:40.28 | 5:06.73 | 88528 | 111550
7 | 24:47.26 | 5:38.31 | 111551 | 136931
8 | 30:25.57 | 4:48.38 | 136932 | 158569
9 | 35:14.20 | 5:03.40 | 158570 | 181334
10 | 40:17.60 | 4:34.02 | 181335 | 201886
11 | 44:51.62 | 4:31.26 | 201887 | 222237
12 | 49:23.13 | 5:04.48 | 222238 | 245085
&n




(2011) Iron Savior / The Landing (Limited Edition)  (Power/Heavy Metal) [FLAC (image+.cue), lossless]
Информация
Посетители, находящиеся в группе Гости, не могут оставлять комментарии к данной публикации.