Вход на сайт

Введите ваш логин:
Введите ваш пароль:
Напомнить пароль

Лучшие торренты тут у нас

(1985) BABYS GANG / Challenger (Pop,Italo Disco) [APE(image+.cue)lossless]







Исполнитель: BABYS GANG
Альбом: Challenger
Тип альбома: Студийный (CD)
Год выпуска: 1985 (Remastering 2001 GDC)
Жанр: Pop,Electronic,Italo Disco
Формат: APE(image+.сue)
Битрейт: lossless
Продолжительность: 00:35:30

Tреклист:

01. Challenger [0:05:19.66]
02. Jamin [0:05:59.45]
03. Happy Birthday (To My Mammy) [0:04:59.23]
04. Happy Song [0:05:39.55]
05. My Little Japanese Boy [0:04:25.59]
06. Step By Step [0:04:35.25]
07. America [0:04:30.44]

"Отчет EAC" ▼

Exact Audio Copy V0.99 prebeta 3 from 28. July 2007

Отчёт EAC об извлечении, выполненном 10. июня 2008, 2:09

Babys Gang / Challenger

Дисковод: PIONEER DVD-RWDVR-112 Adapter: 0ID: 0

Режим чтения : Достоверность
Использование точного потока : Да
Отключение кэша аудио: Да
Использование указателей C2: Нет

Коррекция смещения при чтении : 48
Способность читать области Lead-in и Lead-out : Нет
Заполнение пропущенных сэмплов тишиной: Да
Удаление блоков с тишиной в начале и конце: Нет
При вычислениях CRC использовались нулевые сэмплы : Да
Интерфейс : Встроенный Win32-интерфейс для Win NT/2000

Выходной формат : Внутренние WAV-операции
Формат сэмплов: 44.100 Гц; 16 бит; стерео


TOC извлечённого CD

Трек | Старт| Длительность | Начальный сектор | Конечный сектор
---------------------------------------------------------------------
1|0:00.00 |5:19.66 | 0|23990
2|5:19.66 |5:59.45 | 23991|50960
3| 11:19.36 |4:59.23 | 50961|73408
4| 16:18.59 |5:39.55 | 73409|98888
5| 21:58.39 |4:25.59 | 98889| 118822
6| 26:24.23 |4:35.25 |118823| 139472
7| 30:59.48 |4:30.44 |139473| 159766 




(1985) BABYS GANG / Challenger  (Pop,Italo Disco) [APE(image+.cue)lossless]
Информация
Посетители, находящиеся в группе Гости, не могут оставлять комментарии к данной публикации.