Вход на сайт

Введите ваш логин:
Введите ваш пароль:
Напомнить пароль

Лучшие торренты тут у нас

(1984) Boney M / Ten Thousand Lightyears (Disco) [APE (image+.cue) lossless]







Исполнитель: Boney M
Альбом: Ten Thousand Lightyears
Тип альбома: Студийный
Год выпуска: 1984
Жанр: Disco
Формат: APE (image+.cue)
Битрейт: lossless

Продолжительность: 00:56:50

Tреклист:
[05:19] 01. Boney M - Boney M / Exodus (Noahs Ark 2001)
[04:04] 02. Boney M - Wild Planet
[03:53] 03. Boney M - Future World
[04:10] 04. Boney M - Where Did You Go
[04:33] 05. Boney M - 10.000 Lightyears
[03:05] 06. Boney M - I Feel Good
[04:39] 07. Boney M - Somewhere In The World
[03:11] 08. Boney M - Bel Ami
[03:05] 09. Boney M - Living Like A Moviestar
[03:30] 10. Boney M - Dizzy
[03:12] 11. Boney M - The Alibama
[03:02] 12. Boney M - Jimmy
[02:55] 13. Boney M - Barbarella Fortuneteller
[04:19] 14. Boney M - The Carnival Is Over (Goodbye True Lover) (bonus track)
[03:46] 15. Boney M - (I Need A) Babysitter (bonus track)


"Отчет EAC" ▼Exact Audio Copy V0.99 prebeta 4 from 23. January 2008

Отчёт EAC об извлечении, выполненном 5. августа 2009, 23:26

Boney M. / Ten Thousand Lightyears

Дисковод: Optiarc DVD RW AD-7200S Adapter: 0ID: 0

Режим чтения : Достоверность
Использование точного потока : Да
Отключение кэша аудио: Да
Использование указателей C2: Нет

Коррекция смещения при чтении : 48
Способность читать области Lead-in и Lead-out : Нет
Заполнение пропущенных сэмплов тишиной: Да
Удаление блоков с тишиной в начале и конце: Нет
При вычислениях CRC использовались нулевые сэмплы : Да
Интерфейс : Установленный внешний ASPI-интерфейс

Выходной формат : Внутренние WAV-операции
Формат сэмплов: 44.100 Гц; 16 бит; стерео


TOC извлечённого CD

Трек | Старт| Длительность | Начальный сектор | Конечный сектор
---------------------------------------------------------------------
1|0:00.32 |5:19.72 |32|24028
2|5:20.29 |4:04.51 | 24029|42379
3|9:25.05 |3:53.60 | 42380|59914
4| 13:18.65 |4:10.50 | 59915|78714
5| 17:29.40 |4:33.42 | 78715|99231
6| 22:03.07




(1984) Boney M / Ten Thousand Lightyears (Disco) [APE (image+.cue)  lossless]
Информация
Посетители, находящиеся в группе Гости, не могут оставлять комментарии к данной публикации.