Вход на сайт

Введите ваш логин:
Введите ваш пароль:
Напомнить пароль

Лучшие торренты тут у нас

(2012) Sting / Fifteen Healing Bites (Pop Rock)(Chinese Dragon) [FLAC (tracks+.cue), lossless]







Исполнитель: Sting
Страна: England
Альбом: Fifteen Healing Bites
Тип альбома: Compilation
Год выпуска: 2012
Жанр: Pop - Rock,
Страна (Издатель, Каталожный номер): Taiwan (Chinese Dragon Music Co. Ltd. SCCD-012-01)
Аудиокодек: FLAC (*.flac)
Тип рипа: tracks+.cue
Битрейт: lossless
Продолжительность: 01:09:55

Tреклист:
01. shape of my heart- 4:37
02. fragile- 3:55
03. fields of gold- 3:40
04. moon over bourbon street- 4:02
05. la belle dame sans regrets- 5:17
06. mad about you- 3:55
07. cool breeze- 3:49
08. englishman in new york- 4:27
09. love is the seventh wave- 3:34
10. its probably me- 5:05
11. they dance alone [cueca solo]- 7:10
12. the windmills of your mind- 4:18
13. moonlight- 5:23
14. when we dance- 6:00
15. desert rose- 4:52
Лог создания рипа ▼TextExact Audio Copy V1.0 beta 3 from 29. August 2011

Отчёт EAC об извлечении, выполненном 1. января 2012, 22:28

Sting / Fifteen Healing Bites

Дисковод: Optiarc DVD RW AD-7260S Adapter: 3 ID: 0

Режим чтения : Достоверность
Использование точного потока : Да
Отключение кэша аудио : Да
Использование указателей C2 : Нет

Коррекция смещения при чтении : 48
Способность читать области Lead-in и Lead-out : Нет
Заполнение пропущенных сэмплов тишиной : Да
Удаление блоков с тишиной в начале и конце : Нет
При вычислениях CRC использовались нулевые сэмплы : Да
Интерфейс : Встроенный Win32-интерфейс для Win NT/2000
Обработка зазоров : Добавлено к предыдущему треку

Выходной формат : Пользовательский кодировщик
Выбранный битрейт : 896 kBit/s
Качество : Высокий
Добавление ID3-тега : Да
Утилита сжатия : C:Program FilesExact Audio CopyFlacflac.exe
Дополнительные параметры : -V -8 -T "Genre=%genre%" -T "Artist=%artist%" -T "Title=%title%" -T "Album=%albumtitle%" -T "Date=%year%" -T "Tracknumber=%tracknr%" -T "Comment=%comment%" %source%


TOC извлечённого CD

Трек | Старт | Длительность | Начальный сектор | Конечный сектор
---------------------------------------------------------------------
1 | 0:00.00 | 4:37.10 | 0 | 20784
2 | 4:37.10 | 3:54.48 | 20785 | 38382
3 | 8:31.58 | 3:40.17 | 38383 | 54899
4 | 12:12.00 | 4:01.60 | 54900 | 73034




(2012) Sting / Fifteen Healing Bites (Pop Rock)(Chinese Dragon) [FLAC (tracks+.cue), lossless]
Информация
Посетители, находящиеся в группе Гости, не могут оставлять комментарии к данной публикации.