Вход на сайт

Введите ваш логин:
Введите ваш пароль:
Напомнить пароль

Лучшие торренты тут у нас

(2012) Usher / Looking 4 Myself (Deluxe Version) (R&B, Soul) [FLAC (tracks+.cue), lossless]








Исполнитель:Usher
Альбом:Looking 4 Myself (Deluxe Version)
Тип альбома:Студийный
Год выпуска:2012
Жанр:R&B, Soul
Формат: FLAC (tracks+.cue)
Битрейт: lossless
Log-файл: Присутствует
Продолжительность: 01:11:47



Wikipedia |YouTube|Facebook

Tреклист:
01. Cant Stop Wont Stop (Feat. Will.I.Am & Keith Harris) (3:51)
02. Scream (3:55)
03. Climax (3:53)
04. I Care For U (4:08)
05. Show Me (3:43)
06. Lemme See (Feat. Rick Ross) (4:13)
07. Twisted (Feat. Pharrell) (3:43)
08. Dive (3:47)
09. What Happened To U (Feat. Noah Shebib) (4:22)
10. Looking 4 Myself (Feat. Luke Steele) (4:12)
11. Numb (3:46)
12. Lessons For The Lover (5:07)
13. Sins Of My Father (3:56)
14. Euphoria (4:20)
15. I.F.U. (4:02)
16. Say The Words (Feat. Surahn Sid) (4:01)
17. 2nd Round (3:22)
18. Hot Thing (Feat. A$ap Rocky) (3:27)

Лог создания рипа ▼Text
Exact Audio Copy V1.0 beta 3 from 29. August 2011

EAC extraction logfile from 7. June 2012, 22:29

Usher / Looking 4 Myself

Used drive : hp DVD RW AD-7711H Adapter: 0 ID: 1

Read mode : Secure
Utilize accurate stream : Yes
Defeat audio cache : Yes
Make use of C2 pointers : No

Read offset correction : 48
Overread into Lead-In and Lead-Out : No
Fill up missing offset samples with silence : Yes
Delete leading and trailing silent blocks : No
Null samples used in CRC calculations : Yes
Used interface : Native Win32 interface for Win NT & 2000
Gap handling : Appended to previous track

Used output format : User Defined Encoder
Selected bitrate : 896 kBit/s
Quality : High
Add ID3 tag : No
Command line compressor : C:Program Files (x86)Exact Audio CopyFlacflac.exe
Additional command line options : -8 -V -T "ARTIST=%artist%" -T "TITLE=%title%" -T "ALBUM=%albumtitle%" -T "DATE=%year%" -T "TRACKNUMBER=%tracknr%" -T "GENRE=%genre%" -T "PERFORMER=%albuminterpret%" -T "COMPOSER=%composer%" %haslyrics%--tag-from-file=LYRICS="%lyricsfile%"%haslyrics% -T "ALBUMARTIST=%albumartist%" -T "ALBUM ARTIST=%albumartist%" -T "DISCNUMBER=%cdnumber%" -T "TOTALDISCS=%totalcds%" -T "TOTALTRACKS=%numtracks%" -T "COMMENT=EAC V1.0 beta 2, Secure Mode, Test & Copy, AccurateRip, FLAC -8" %source% -o %dest%


TOC of the extracted CD

Track | Start | Length | Start sector | End sector
---------------------------------------------------------
1 | 0:00.00 | 3:51.05 | 0 | 17329
2 | 3:51.05 | 3:54.52 | 17330 | 34931
3 | 7:45.57 | 3:52.68 | 34932 | 52399
4 | 11:38.50 | 4:07.58 | 52400 | 70982 &nbs




(2012) Usher / Looking 4 Myself (Deluxe Version) (R&B, Soul) [FLAC (tracks+.cue), lossless]
Информация
Посетители, находящиеся в группе Гости, не могут оставлять комментарии к данной публикации.