Вход на сайт

Введите ваш логин:
Введите ваш пароль:
Напомнить пароль

Лучшие торренты тут у нас

(2011) Rihanna / Talk That Talk (Deluxe Edition) (R&B) [ALAC (tracks), lossless]







Исполнитель: Rihanna
Альбом: Talk That Talk (Deluxe Edition)
Страна: USA
Тип альбома: Студийный
Год выпуска: 2011
Жанр: R&B
Формат: ALAC (tracks)
Битрейт: lossless
Продолжительность: 00:49:06


Треклист ▼01. You Da One (3:20)
02 Where Have You Been (4:02)
03 We Found Love (feat. Calvin Harris) (3:35)
04 Talk That Talk (feat. Jay-Z) (3:29)
05 Cockiness (Love It) (2:58)
06 Birthday Cake (1:18)
07 We All Want Love (3:57)
08 Drunk On Love (3:32)
09 Roc Me Out (3:29)
10 Watch N Learn (3:31)
11 Farewell (4:16)
12 Red Lipstick (3:37)
13 Do Ya Thang (3:43)
14 Fool In Love (4:15)

Лог создания рипа ▼Exact Audio Copy V1.0 beta 3 from 29. August 2011

EAC extraction logfile from 29. November 2011, 1:34

Rihanna / Talk That Talk

Used drive: Optiarc DVD RW AD-7710H Adapter: 0ID: 0

Read mode : Secure
Utilize accurate stream : Yes
Defeat audio cache: Yes
Make use of C2 pointers : No

Read offset correction: 48
Overread into Lead-In and Lead-Out: No
Fill up missing offset samples with silence : Yes
Delete leading and trailing silent blocks : No
Null samples used in CRC calculations : Yes
Used interface: Native Win32 interface for Win NT & 2000
Gap handling: Appended to previous track

Used output format: User Defined Encoder
Selected bitrate: 320 kBit/s
Quality : High
Add ID3 tag : Yes
Command line compressor : C:Program FilesExact Audio CopyFlacflac.exe
Additional command line options : -8 -V -T "ARTIST=%artist%" -T "TITLE=%title%" -T "ALBUM=%albumtitle%" -T "DATE=%year%" -T "TRACKNUMBER=%tracknr%" -T "GENRE=%genre%" -T "PERFORMER=%albuminterpret%" -T "COMPOSER=%composer%" %haslyrics%--tag-from-file=LYRICS="%lyricsfile%"%haslyrics% -T "ALBUMARTIST=%albumartist%" -T "DISCNUMBER=%cdnumber%" -T "TOTALDISCS=%totalcds%" -T "TOTALTRACKS=%numtracks%" -T "COMMENT=%comment%" %source% -o %dest%

TOC of the extracted CD

Track | Start|Length| Start sector | End sector
---------------------------------------------------------
1|0:00.00 |3:20.01 | 0|15000
2|3:20.01 |4:02.51 | 15001|33201
3|7:22.52 |3:35.17 | 33202|49343
 




(2011) Rihanna / Talk That Talk (Deluxe Edition) (R&B) [ALAC (tracks), lossless]
Информация
Посетители, находящиеся в группе Гости, не могут оставлять комментарии к данной публикации.