Вход на сайт

Введите ваш логин:
Введите ваш пароль:
Напомнить пароль

Лучшие торренты тут у нас

(2008) БандЭрос / Коламбия Пикчерз Не Представляет. Новое Издание(R&B) [APE (image + .cue) lossless]







Исполнитель: БандЭрос
Альбом: Коламбия Пикчерз Не Представляет. Новое Издание
Тип альбома: Студийный
Год выпуска: 2008
Жанр:R&B
Формат: APE (image + .cue)
Битрейт: lossless
Продолжительность: 00:58:00

Tреклист:
1. Про красивую жизнь
2. Коламбия Пикчерз не представляет
3. Передача (для тех, кому по…)
4. Бумажный змей (Песня про деньги)
5. Наоми я бы Кэмпбел
6. Жизни не жалко
7. К тебе поближе
8. Никогда не знаешь
9. Танцуй, Рублевка
10. Аль Пачино
11. Не зарекайся
12. Манхэттен
13. Бум-Сеньорита
14. Я не люблю тебя
15. Плаstелиновая
16. Outro
17. Про красивую жизнь (Remix)


"Отчет EAC" ▼Exact Audio Copy V0.99 prebeta 4 from 23. January 2008

Отчёт EAC об извлечении, выполненном 17. января 2009, 2:55

БандЭрос / Коламбия Пикчерз Не Представляет (новое

Дисковод: TSSTcorpCDDVDW TS-L632H Adapter: 0ID: 0

Режим чтения : Достоверность
Использование точного потока : Да
Отключение кэша аудио: Да
Использование указателей C2: Нет

Коррекция смещения при чтении : 6
Способность читать области Lead-in и Lead-out : Нет
Заполнение пропущенных сэмплов тишиной: Да
Удаление блоков с тишиной в начале и конце: Нет
При вычислениях CRC использовались нулевые сэмплы : Да
Интерфейс : Установленный внешний ASPI-интерфейс

Выходной формат : Внутренние WAV-операции
Формат сэмплов: 44.100 Гц; 16 бит; стерео


TOC извлечённого CD

Трек | Старт| Длительность | Начальный сектор | Конечный сектор
---------------------------------------------------------------------
1|0:00.00 |3:41.26 | 0|16600
2|3:41.26 |4:26.41 | 16601|36591
3|8:07.67 |3:24.56 | 36592|51947
4| 11:32.48 |3:32.64 | 51948|67911
5| 15:05.37 |3:50.11 | 67912|85172
6| 18:55.48 |2:58.03 | 85173|98525
&nbs




(2008) БандЭрос / Коламбия Пикчерз Не Представляет. Новое Издание(R&B) [APE (image + .cue) lossless]
Информация
Посетители, находящиеся в группе Гости, не могут оставлять комментарии к данной публикации.