Вход на сайт

Введите ваш логин:
Введите ваш пароль:
Напомнить пароль

Лучшие торренты тут у нас

(2009) Guf / Дома (Rap) [APE (image+.cue)]







Исполнитель: Guf
Альбом: Дома
Тип альбома: ОФициальный альбом
Год выпуска: 2009
Жанр: Rap
Формат: APE(image+.cue)
Битрейт: lossless
Продолжительность: 00:56:22

Tреклист:
01. Интро
02. Больше Стаффа
03. Под Балконом
04. Не Всё Потеряно (Feat. Баста)
05. Заходит Луна (Feat. Princip)
06. Для Неё
07. Провода (Feat. Миг29)
08. Skittles (Skit) (Feat. Бу)
09. Ice Baby
10. Сверху Видно Всё (Feat. Тандем)
11. Хм... (Skit)
12. Metropolitan Mail
13. Надо Лечиться
14. Калпак (Feat. Mark)
15. Было Давно
16. Дома (Feat. Ба)
17. Аутро

Отчет EAC:
▼t Audio Copy V0.99 prebeta 4 from 23. January 2008

Отчёт EAC об извлечении, выполненном 3. декабря 2009, 17:44

Guf / Дома

Дисковод: HL-DT-STDVD-RW_GSA-H41N Adapter: 0ID: 0

Режим чтения : Достоверность
Использование точного потока : Да
Отключение кэша аудио: Да
Использование указателей C2: Нет

Коррекция смещения при чтении : 667
Способность читать области Lead-in и Lead-out : Нет
Заполнение пропущенных сэмплов тишиной: Да
Удаление блоков с тишиной в начале и конце: Нет
При вычислениях CRC использовались нулевые сэмплы : Да
Интерфейс : Установленный внешний ASPI-интерфейс

Выходной формат : Внутренние WAV-операции
Формат сэмплов: 44.100 Гц; 16 бит; стерео


TOC извлечённого CD

Трек | Старт| Длительность | Начальный сектор | Конечный сектор
---------------------------------------------------------------------
1|0:00.00 |1:21.69 | 0| 6143
2|1:21.69 |4:32.34 |6144|26577
3|5:54.28 |4:31.62 | 26578|46964
4| 10:26.15 |4:26.31 | 46965|66945
5| 14:52.46 |3:37.53 | 66946|83273
6| 18:30.24 |3:21.07 | 83274|98355
7| 21:51.31 |3:42.06 | 98356




(2009) Guf / Дома (Rap) [APE (image+.cue)]
Информация
Посетители, находящиеся в группе Гости, не могут оставлять комментарии к данной публикации.