Вход на сайт

Введите ваш логин:
Введите ваш пароль:
Напомнить пароль

Лучшие торренты тут у нас

(2012) KREC / Молча проще (Rap) [FLAC (tracks+.cue), lossless]







*Исполнитель: KREC
*Страна: Россия, Санкт-Петербург
*Альбом: Молча проще
*Тип альбома: Студийный
*Год выпуска: 2012
*Жанр: Rap
*LOG-Файлы: Присутствуют
*Сканы: Отсутствуют
*Аудиокодек: FLAC (*.flac)
*Тип рипа: tracks+.cue
*Битрейт: lossless
*Продолжительность: 00:44:43


*Tреклист:
01. Слово[03:00]
02. Монолит[03:06]
03. На прочность[02:43]
04. Новый порядок[03:32]
05. В каждом из нас[03:45]
06. Лес[03:32]
07. Молча проще[03:30]
08. В никуда[03:12]
09. Навигатор[03:38]
10. Мой город[03:08]
11. Время[04:21]
12. По кругу[03:23]
13. Огонь[03:47]

Лог создания рипа ▼TextExact Audio Copy V1.0 beta 3 from 29. August 2011

Отчёт EAC об извлечении, выполненном 19. декабря 2012, 22:13

Krec / Молча проще

Дисковод: Optiarc DVD RW AD-7280S Adapter: 0 ID: 0

Режим чтения : Достоверность
Использование точного потока : Да
Отключение кэша аудио : Да
Использование указателей C2 : Нет

Коррекция смещения при чтении : 48
Способность читать области Lead-in и Lead-out : Нет
Заполнение пропущенных сэмплов тишиной : Да
Удаление блоков с тишиной в начале и конце : Нет
При вычислениях CRC использовались нулевые сэмплы : Да
Интерфейс : Встроенный Win32-интерфейс для Win NT/2000
Обработка зазоров : Добавлено к предыдущему треку

Выходной формат : Пользовательский кодировщик
Выбранный битрейт : 128 kBit/s
Качество : Высокий
Добавление ID3-тега : Нет
Утилита сжатия : C:Program Files (x86)FLACflac.exe
Дополнительные параметры : -V -8 -T "Genre=%genre%" -T "Artist=%artist%" -T "Title=%title%" -T "Album=%albumtitle%" -T "Date=%year%" -T "Tracknumber=%tracknr%" -T "Comment=%comment%" %source%


TOC извлечённого CD

Трек | Старт | Длительность | Начальный сектор | Конечный сектор
---------------------------------------------------------------------
1 | 0:00.00 | 3:00.68 | 0 | 13567
2 | 3:00.68 | 3:06.02 | 13568 | 27519
3 | 6:06.70 | 2:43.40 | 27520 | 39784
4 | 8:50.35 | 3:32.34 | 39785 | 55718
5 | 12:22.69 | 3:45.10 | 55719 | 72603
6 | 16:08.04 | 3:32.07 | 72604 | 88510
7 | 19:40.11 | 3:30.70 | 88511 | 104330





(2012) KREC / Молча проще (Rap) [FLAC (tracks+.cue), lossless]
Информация
Посетители, находящиеся в группе Гости, не могут оставлять комментарии к данной публикации.