Вход на сайт

Введите ваш логин:
Введите ваш пароль:
Напомнить пароль

Лучшие торренты тут у нас

(2008) НоГГано / Первый (Rap) [APE(image+cue), lossless]







Исполнитель: НоГГано
Альбом: Первый
Тип альбома: ОФициальный альбом
Год выпуска: 2008
Жанр: Rap
Формат: APE+.сue
Битрейт: lossless
Log-файл: Присутствует
Продолжительность: 01:16:44

Tреклист:
[05:14] 01. Ноггано - Птицы
[05:08] 02. Ноггано - Супер герой ft. ki.mono
[05:38] 03. Ноггано - Застра*censored*
[05:27] 04. Ноггано - Еб… насос
[03:29] 05. Ноггано - Кирпичи
[02:47] 06. Ноггано - У ноггано депрессия
[05:02] 07. Ноггано - Матрешки ft. Купэ
[03:31] 08. Ноггано - Играй гитара
[04:39] 09. Ноггано - Голос андеграунда ft. Jeeep
[03:12] 10. Ноггано - Шоу биз
[04:03] 11. Ноггано - Пати у Ноггано
[04:56] 12. Ноггано - А. Пальчиков
[06:27] 13. Ноггано - Дурка
[05:53] 14. Ноггано - Дискавери ft. Банкок
[06:22] 15. Ноггано - Кипет риал
[04:56] 16. Ноггано - Бонус

Отчет EAC:
▼Exact Audio Copy V0.99 prebeta 3 from 28. July 2007

Отчёт EAC об извлечении, выполненном 20. апреля 2008, 18:08

Ноггано / Первый

Дисковод: HL-DT-STDVDRAM GSA-H10A Adapter: 5ID: 0

Режим чтения : Достоверность
Использование точного потока : Да
Отключение кэша аудио: Да
Использование указателей C2: Нет

Коррекция смещения при чтении : 667
Способность читать области Lead-in и Lead-out : Нет
Заполнение пропущенных сэмплов тишиной: Да
Удаление блоков с тишиной в начале и конце: Нет
При вычислениях CRC использовались нулевые сэмплы : Да
Интерфейс : Установленный внешний ASPI-интерфейс

Выходной формат : Внутренние WAV-операции
Формат сэмплов: 44.100 Гц; 16 бит; стерео


TOC извлечённого CD

Трек | Старт| Длительность | Начальный сектор | Конечный сектор
---------------------------------------------------------------------
1|0:00.00 |5:16.44 | 0|23743
2|5:16.44 |5:07.58 | 23744|46826
3| 10:24.27 |5:38.30 | 46827|72206
4| 16:02.57 |5:26.71 | 72207|96727
5| 21:29.53 |3:28.62 | 96728| 112389
6| 24:58.40 |2:46.53 |112390|&n




(2008) НоГГано / Первый (Rap) [APE(image+cue), lossless]
Информация
Посетители, находящиеся в группе Гости, не могут оставлять комментарии к данной публикации.