Вход на сайт

Введите ваш логин:
Введите ваш пароль:
Напомнить пароль

Лучшие торренты тут у нас

(2011) Ассаи / ОМ (Rap) [FLAC (tracks+.cue), lossless]








Исполнитель:Ассаи
Альбом:ОМ
Тип альбома:Студийный
Год выпуска:2011
Жанр:Rap
Формат: FLAC (tracks+.cue)
Битрейт: lossless
Продолжительность: 00:51:30

Tреклист:
01. 29 (4:03)
02. Мелани (3:26)
03. Столько жизни (3:47)
04. Прогулки в никуда (3:20)
05. Счастье (3:23)
06. Высокий год (4:27)
07. Крот (2:40)
08. Свет новой любви (3:37)
09. Проснись (4:47)
10. Пульс (4:12)
11. Дача (4:23)
12. Бездна (3:22)
13. Кристалл (4:06)
14. Художник (2:48)


Лог создания рипа ▼Text
Exact Audio Copy V0.99 prebeta 4 from 23. January 2008
Отчёт EAC об извлечении, выполненном 27. ноября 2011, 3:10
Ассаи / ОМ
Дисковод: ASUS DRW-1608P Adapter: 0 ID: 0
Режим чтения : Достоверность
Использование точного потока : Да
Отключение кэша аудио : Да
Использование указателей C2 : Нет
Коррекция смещения при чтении : 48
Способность читать области Lead-in и Lead-out : Нет
Заполнение пропущенных сэмплов тишиной : Да
Удаление блоков с тишиной в начале и конце : Нет
При вычислениях CRC использовались нулевые сэмплы : Да
Интерфейс : Встроенный Win32-интерфейс для Win NT/2000
Обработка зазоров : Добавлено к предыдущему треку
Выходной формат : Пользовательский кодировщик
Выбранный битрейт : 320 kBit/s
Качество : Высокий
Добавление ID3-тэга : Нет
Утилита сжатия : D:Program FilesExact Audio CopyFlacflac.exe
Дополнительные параметры : -8 -V -T "ARTIST=%a" -T "TITLE=%t" -T "ALBUM=%g" -T "DATE=%y" -T "TRACKNUMBER=%n" -T "GENRE=%m" -T "COMMENT=EAC FLAC -8" %s
TOC извлечённого CD
Трек | Старт | Длительность | Начальный сектор | Конечный сектор
---------------------------------------------------------------------
1 | 0:00.00 | 4:02.57 | 0 | 18206
2 | 4:02.57 | 3:26.28 | 18207 | 33684
3 | 7:29.10 | 3:46.68 | 33685 | 50702
4 | 11:16.03 | 3:19.69 | 50703 | 65696
5 | 14:35.72 | 3:23.04 | 65697 | 80925
6 | 17:59.01 | 4:36.69 | 80926 | 101694
7 | 22:35.70 | 2:39.63 | 101695 | 113682
8 | 25:15.58 | 2:36.38 | 113683 | 125420
9 | 27:52.21 | 4:46.59 | 125421 |&nb




(2011) Ассаи / ОМ (Rap) [FLAC (tracks+.cue), lossless]
Информация
Посетители, находящиеся в группе Гости, не могут оставлять комментарии к данной публикации.