Вход на сайт

Введите ваш логин:
Введите ваш пароль:
Напомнить пароль

Лучшие торренты тут у нас

(2010) БИ-2 / О чём говорят мужчины (Pop-Rock) [FLAC (image + .cue), lossless]







Исполнитель: БИ-2
Альбом: О Чём Говорят мужчины
Тип альбома: Студийный
Год выпуска: 2010
Жанр: Pop-Rock
Формат: FLAC (image + .cue)
Битрейт: lossless
Продолжительность: 01:03:16

Tреклист:
01. Скандал (03:30)
02. Реки Любви (04:09)
03. Вечная Призрачная Встречная (05:12)
04. Ярмарка Невест (05:26)
05. Черный День (03:43)
06. Задеть За Живое (07:34)
07. Когда Мы Станем Снегом (04:25)
08. Фавн Dj (04:15)
09. Ее глаза (из Шекспира) (04:53)
10. Падает Снег feat. Чичерина (04:04)
11. Танго (03:37)
12. Ярмарка Ska (05:33)
13. bonus track Черный День (Yuri Usachev Remix) (06:54)

"Отчет EAC" ▼
TextExact Audio Copy V0.99 prebeta 5 from 4. May 2009

Отчёт EAC об извлечении, выполненном 15. марта 2010, 21:40

Би-2 / О Чем Говорят Мужчины

Дисковод: TSSTcorpCDDVDW SH-S223Q Adapter: 3 ID: 0

Режим чтения : Достоверность
Использование точного потока : Да
Отключение кэша аудио : Да
Использование указателей C2 : Нет

Коррекция смещения при чтении : 6
Способность читать области Lead-in и Lead-out : Нет
Заполнение пропущенных сэмплов тишиной : Да
Удаление блоков с тишиной в начале и конце : Нет
При вычислениях CRC использовались нулевые сэмплы : Да
Интерфейс : Установленный внешний ASPI-интерфейс SAV

Выходной формат : Пользовательский кодировщик
Выбранный битрейт : 768 kBit/s
Качество : Высокий
Добавление ID3-тэга : Нет
Утилита сжатия : C:Program FilesExact Audio CopyFLACFLAC.EXE
Дополнительные параметры : -6 -V -T "ARTIST=%a" -T "TITLE=%t" -T "ALBUM=%g" -T "DATE=%y" -T "TRACKNUMBER=%n" -T "GENRE=%m" -T "COMMENT=%e" %s -o %d


TOC извлечённого CD

Трек | Старт | Длительность | Начальный сектор | Конечный сектор
---------------------------------------------------------------------
1 | 0:00.00 | 3:30.06 | 0 | 15755
2 | 3:30.06 | 4:08.43 | 15756 | 34398
3 | 7:38.49 | 5:11.69 | 34399 | 57792
4 | 12:50.43 | 5:26.31 | 57793 | 82273
5 | 18:16.74 | 3:43.37 | 82274 | 99035
6 | 22:00.36 | 7:34.15 | 99036 | 133100
7 | 29:34.51 | 4:25.05 | 133101 | 152980
8 | 33:59.56 | 4:14.46 | 152981 | 172076
&




(2010) БИ-2 / О чём говорят мужчины (Pop-Rock) [FLAC (image + .cue), lossless]
Информация
Посетители, находящиеся в группе Гости, не могут оставлять комментарии к данной публикации.