Вход на сайт

Введите ваш логин:
Введите ваш пароль:
Напомнить пароль

Лучшие торренты тут у нас

(2013) Мумий Тролль / SOS Матросу - 2013, (Rock) [FLAC (image+.cue), lossless]







Исполнитель: Мумий Тролль
Альбом: SOS Матросу
Тип альбома: Студийный
Год выпуска: 2013
Жанр: Rock
Аудиокодек: FLAC (*.flac)
Тип рипа: image+.cue
Битрейт: lossless
Продолжительность: 00:46:59

Tреклист:
01. sos матросу- 5:18
02. брат три- 4:38
03. федорино горе- 5:08
04. четвёртый троллейбус- 3:54
05. десерты- 2:53
06. космический десантник- 5:21
07. акулы или паука- 3:39
08. колыма- 7:20
09. малёк- 5:13
10. странные игры- 3:33
Лог создания рипа ▼TextExact Audio Copy V1.0 beta 3 from 29. August 2011

EAC extraction logfile from 5. September 2013, 15:00

Мумий Троль / SOS Матросу

Used drive : SlimtypeDVD A DS8A8SH Adapter: 0 ID: 1

Read mode : Secure
Utilize accurate stream : Yes
Defeat audio cache : Yes
Make use of C2 pointers : No

Read offset correction : 6
Overread into Lead-In and Lead-Out : No
Fill up missing offset samples with silence : Yes
Delete leading and trailing silent blocks : No
Null samples used in CRC calculations : Yes
Used interface : Native Win32 interface for Win NT & 2000

Used output format : Internal WAV Routines
Sample format : 44.100 Hz; 16 Bit; Stereo


TOC of the extracted CD

Track | Start | Length | Start sector | End sector
---------------------------------------------------------
1 | 0:00.00 | 5:18.28 | 0 | 23877
2 | 5:18.28 | 4:37.48 | 23878 | 44700
3 | 9:56.01 | 5:08.29 | 44701 | 67829
4 | 15:04.30 | 3:53.62 | 67830 | 85366
5 | 18:58.17 | 2:53.33 | 85367 | 98374
6 | 21:51.50 | 5:21.28 | 98375 | 122477
7 | 27:13.03 | 3:38.72 | 122478 | 138899
8 | 30:52.00 | 7:20.22 | 138900 | 171921
9 | 38:12.22 | 5:13.00 | 171922 | 195396
10 | 43:25.22 | 3:33.29 | 195397 | 211400


Range status and errors

Selected range

Filename D:MusicMumiy Troll - SOS To A Sailor (2013) (Navigator NR1913 CDp)Mumiy Troll - SOS To A Sailor.wav

Peak level 100.0 %
Extraction speed 1.7 X
Range quality 99.9 %
Test CRC 98DE762D
Copy CRC 98DE762D
Copy OK

No errors occurred


AccurateRip summary

Track 1 not present in database
Track 2 not present in database
Track 3 not present in database
Track




(2013) Мумий Тролль / SOS Матросу - 2013, (Rock) [FLAC (image+.cue), lossless]
Информация
Посетители, находящиеся в группе Гости, не могут оставлять комментарии к данной публикации.