Вход на сайт

Введите ваш логин:
Введите ваш пароль:
Напомнить пароль

Лучшие торренты тут у нас

(1985, Сборник) VA / The Breakfast Club Original Motion Picture Soundtrack (Soundtrack) [FLAC (tracks+.cue), lossless]








Сборник
Исполнитель:Various Artists
Название сборника:The Breakfast Club Original Motion Picture Soundtrack
Год выпуска:1985
Жанр:Soundtrack
Аудиокодек: FLAC (*.flac)
Тип рипа: tracks+.cue
Битрейт: lossless
Продолжительность: 00:38:08



Tреклист:
01. Simple Minds — Dont You Forget about Me (04:21)
02. Elizabeth Daily — Waiting (04:39)
03. Wang Chung — Fire in the Twilight (03:52)
04. Im the Dude (Instrumental; produced by Keith Forsey) (02:10)
05. Jesse Johnson & Stepanie Spruill — Heart too Hot to Hold (04:25)
06. Dream Montage (Instrumental; produced by Gary Chang) (02:39)
07. Karla DeVito — We are Not Alone (03:38)
08. The Reggae (Instrumental; produced by Keith Forsey) (03:08)
09. Joyce Kennedy — Didnt I Tell You (04:47)
10. Love Theme (Instrumental; produced by Keith Forsey) (04:28)

Лог создания рипа ▼Text Exact Audio Copy V0.99 prebeta 4 from 23. January 2008

EAC extraction logfile from 18. September 2008, 18:15

Various / Breakfast Club - Original Motion Picture Soun

Used drive : LITE-ON DVDRW SH-16A7S Adapter: 0 ID: 0

Read mode : Secure
Utilize accurate stream : Yes
Defeat audio cache : Yes
Make use of C2 pointers : No

Read offset correction : 6
Overread into Lead-In and Lead-Out : No
Fill up missing offset samples with silence : Yes
Delete leading and trailing silent blocks : No
Null samples used in CRC calculations : Yes
Used interface : Native Win32 interface for Win NT & 2000
Gap handling : Appended to previous track

Used output format : User Defined Encoder
Selected bitrate : 320 kBit/s
Quality : High
Add ID3 tag : No
Command line compressor : C:Program FilesExact Audio CopyFLACFLAC.EXE
Additional command line options : -V -8 -T "artist=%a" -T "title=%t" -T "album=%g" -T "date=%y" -T "tracknumber=%n" -T "genre=%m" %s


TOC of the extracted CD

Track | Start | Length | Start sector | End sector
---------------------------------------------------------
1 | 0:00.00 | 4:21.30 | 0 | 19604
2 | 4:21.30 | 4:39.12 | 19605 | 40541
3 | 9:00.42 | 3:52.20 | 40542 | 57961
4 | 12:52.62 | 2:10.23 | 57962 | 67734
5 | 15:03.10 | 4:25.10 | 67735 | 87619
6 | 19:28.20 | 2:38.45 | 87620 | 99514
7 | 22:06.65 | 3:37.67 | 99515 | 115856
8 | 25:44.57 | 3:07.53 |&nbs




(1985, Сборник) VA / The Breakfast Club Original Motion Picture Soundtrack (Soundtrack) [FLAC (tracks+.cue), lossless]
Информация
Посетители, находящиеся в группе Гости, не могут оставлять комментарии к данной публикации.