Вход на сайт

Введите ваш логин:
Введите ваш пароль:
Напомнить пароль

Лучшие торренты тут у нас

(2013) Hans Zimmer / Человек из стали / Man Of Steel [Deluxe Edition] (2 CD) (Score) [FLAC (tracks+.cue), lossless]







Композитор: Hans Zimmer
Альбом: Человек из стали / Man Of Steel [Deluxe Edition]
Год выпуска: 2013
Жанр: Score
Страна (Издатель, Штриховой код): USA(WaterTower Music, 794043169137)
Аудиокодек: FLAC (*.flac)
Тип рипа: tracks+.cue
Битрейт: lossless
Лог файлы: присутствуют
Наличие сканов в содержимом раздачи: Есть
Продолжительность: 01:55:08


Tреклист:
CD/1
01. Look to the Stars (2:54)
02. Oil Rig (1:31)
03. Sent Here for a Reason (3:46)
04. DNA (3:18)
05. Goodbye My Son (1:57)
06. If You Love These People (3:03)
07. Kryptons Last (1:58)
08. Terraforming (9:46)
09. Tornado (2:47)
10. You Die or I Do (3:04)
11. Launch (2:29)
12. Ignition (1:12)
13. I Will Find Him (2:47)
14. This Is Clark Kent (3:36)
15. I Have So Many Questions (3:21)
16. Flight (4:09)
17. What Are You Going to Do When You Are Not Saving the World? (5:26)

CD/2
01. Man of Steel (Hans original Sketchbook) (28:11)
02. Are You Listening, Clark? (2:39)
03. General Zod (7:07)
04. You Led Us Here (2:51)
05. This Is Madness! (3:38)
06. Earth (6:13)
07. Arcade (7:25)
Лог создания рипа ▼"CD/1" ▼Text
Exact Audio Copy V1.0 beta 3 from 29. August 2011

EAC extraction logfile from 14. June 2013, 19:35

Hanz Zimmer / Man of Steel: Deluxe Edition (CD1)

Used drive : HL-DT-STBD-RE BH10LS38 Adapter: 2 ID: 0

Read mode : Secure
Utilize accurate stream : Yes
Defeat audio cache : Yes
Make use of C2 pointers : No

Read offset correction : 667
Overread into Lead-In and Lead-Out : No
Fill up missing offset samples with silence : Yes
Delete leading and trailing silent blocks : No
Null samples used in CRC calculations : Yes
Used interface : Native Win32 interface for Win NT & 2000
Gap handling : Appended to previous track

Used output format : User Defined Encoder
Selected bitrate : 768 kBit/s
Quality : High
Add ID3 tag : No
Command line compressor : C:Program Files (x86)Exact Audio CopyFLACFLAC.EXE
Additional command line options : -8 -V -T "ARTIST=%artist%" -T "TITLE=%title%" -T "ALBUM=%albumtitle%" -T "DATE=%year%" -T "TRACKNUMBER=%tracknr%" -T "GENRE=%genre%" -T "PERFORMER=%albuminterpret%" -T "COMPOSER=%composer%" %haslyrics%--tag-from-file=LYRICS="%lyricsfile%"%haslyrics% -T "ALBUMARTIST=%albumartist%" -T "ALBUM ARTIST=%albumartist%" -T "DISCNUMBER=%cdnumber%" -T "TOTALDISCS=%totalcds%" -T "TOTALTRACKS=%numtracks%" -T "COMMENT=%comment%" %source% -o %dest%

TOC of the extracted CD

Track | Start | Length | Start sector | End sector
---------------------------------------------------------
1 | 0:00.00 | 2:53.60 | 0 | 13034
2 | 2:53.60 | 1:31.36 | 13035 | 19895
3 | 4:25.21 | 3:45.44 | 19896 | 36814





(2013) Hans Zimmer / Человек из стали / Man Of Steel [Deluxe Edition] (2 CD) (Score) [FLAC (tracks+.cue), lossless]
Информация
Посетители, находящиеся в группе Гости, не могут оставлять комментарии к данной публикации.